<?xml version="1.0" standalone="no"?>
<!DOCTYPE svg PUBLIC "-//W3C//DTD SVG 1.1//EN" "http://www.w3.org/Graphics/SVG/1.1/DTD/svg11.dtd" >
<svg xmlns="http://www.w3.org/2000/svg">
<metadata>Generated by IcoMoon</metadata>
<defs>
<font id="icomoon" horiz-adv-x="1024">
<font-face units-per-em="1024" ascent="960" descent="-64" />
<missing-glyph horiz-adv-x="1024" />
<glyph unicode="&#x20;" horiz-adv-x="512" d="" />
<glyph unicode="&#xe900;" glyph-name="all" d="M512 874.667c-235.838 0-426.667-190.86-426.667-426.667 0-235.84 190.864-426.667 426.667-426.667 235.836 0 426.667 190.861 426.667 426.667 0 235.84-190.865 426.667-426.667 426.667zM436.706 322.509h-50.196v75.294h-50.196v-75.294h-50.196v175.689c0 41.514 33.779 75.293 75.294 75.293 41.519 0 75.294-33.779 75.294-75.293v-175.689zM612.39 322.509h-125.487v250.982h50.193v-200.784h75.294v-50.197zM788.079 322.509h-125.491v250.982h50.197v-200.784h75.294v-50.197zM361.412 523.294c-13.838 0-25.098-11.26-25.098-25.097v-50.197h50.196v50.197c0 13.837-11.259 25.097-25.098 25.097z" />
<glyph unicode="&#xe901;" glyph-name="all-1" d="M380.718 874.667h-196.923c-54.379 0-98.461-44.083-98.461-98.461v-196.923c0-54.38 44.083-98.463 98.461-98.463h196.923c54.38 0 98.463 44.083 98.463 98.463v196.923c0 54.379-44.083 98.461-98.463 98.461zM840.205 874.667h-196.924c-54.379 0-98.462-44.083-98.462-98.461v-196.923c0-54.38 44.083-98.463 98.462-98.463h196.924c54.379 0 98.462 44.083 98.462 98.463v196.923c0 54.379-44.083 98.461-98.462 98.461zM380.718 415.181h-196.923c-54.379 0-98.461-44.083-98.461-98.462v-196.924c0-54.379 44.083-98.462 98.461-98.462h196.923c54.38 0 98.463 44.083 98.463 98.462v196.924c0 54.379-44.083 98.462-98.463 98.462zM741.743 21.333c108.757 0 196.924 88.166 196.924 196.924s-88.166 196.924-196.924 196.924c-108.757 0-196.924-88.166-196.924-196.924s88.166-196.924 196.924-196.924z" />
<glyph unicode="&#xe902;" glyph-name="arrow-down" d="M469.333 167.023l-225.835 225.835c-16.64 16.64-43.691 16.64-60.331 0s-16.64-43.691 0-60.331l298.667-298.667c16.64-16.683 43.691-16.683 60.331 0l298.667 298.667c16.64 16.64 16.64 43.691 0 60.331s-43.691 16.64-60.331 0l-225.835-225.835v665.004c0 23.552-19.115 42.667-42.667 42.667s-42.667-19.115-42.667-42.667v-665.004z" />
<glyph unicode="&#xe903;" glyph-name="arrow-left" d="M230.966 490.662l225.836 225.833c16.64 16.64 16.64 43.691 0 60.331s-43.692 16.64-60.332 0l-298.667-298.665c-16.683-16.64-16.683-43.691 0-60.331l298.667-298.667c16.64-16.64 43.692-16.64 60.332 0s16.64 43.691 0 60.331l-225.836 225.835h665.004c23.552 0 42.667 19.115 42.667 42.667s-19.115 42.667-42.667 42.667h-665.004z" />
<glyph unicode="&#xe904;" glyph-name="arrow-left-tiny" d="M390.256 434.278l213.311-193.929c1.98-1.801 4.335-3.23 6.925-4.207 2.586-0.973 5.363-1.476 8.166-1.476s5.577 0.503 8.166 1.476c2.59 0.977 4.941 2.406 6.925 4.207 1.98 1.801 3.554 3.942 4.625 6.293 1.075 2.355 1.626 4.881 1.626 7.428s-0.55 5.069-1.626 7.424c-1.071 2.355-2.645 4.493-4.625 6.298l-198.246 180.207 198.246 180.209c4.002 3.639 6.251 8.574 6.251 13.72s-2.249 10.082-6.251 13.721c-4.002 3.639-9.434 5.683-15.091 5.683-5.662 0-11.089-2.044-15.091-5.683l-213.311-193.929c-1.984-1.801-3.557-3.942-4.63-6.293-1.073-2.355-1.626-4.881-1.626-7.428s0.553-5.073 1.626-7.428c1.073-2.351 2.647-4.493 4.63-6.293z" />
<glyph unicode="&#xe905;" glyph-name="arrow-right" d="M792.981 490.662l-225.835 225.833c-16.64 16.64-16.64 43.691 0 60.331s43.691 16.64 60.331 0l298.667-298.665c16.683-16.64 16.683-43.691 0-60.331l-298.667-298.667c-16.64-16.64-43.691-16.64-60.331 0s-16.64 43.691 0 60.331l225.835 225.835h-665.002c-23.552 0-42.667 19.115-42.667 42.667s19.115 42.667 42.667 42.667h665.002z" />
<glyph unicode="&#xe906;" glyph-name="arrow-right-tiny" d="M633.745 461.722l-213.311 193.929c-1.982 1.802-4.335 3.231-6.924 4.206s-5.365 1.477-8.168 1.477c-2.803 0-5.578-0.502-8.168-1.477s-4.942-2.404-6.924-4.206c-1.982-1.802-3.554-3.941-4.626-6.295s-1.625-4.877-1.625-7.426c0-2.548 0.552-5.071 1.625-7.425s2.644-4.493 4.626-6.295l198.246-180.209-198.246-180.211c-4.003-3.635-6.251-8.572-6.251-13.717s2.249-10.082 6.251-13.722c4.003-3.639 9.431-5.683 15.092-5.683s11.089 2.044 15.092 5.683l213.311 193.929c1.984 1.801 3.554 3.942 4.629 6.293 1.075 2.355 1.626 4.881 1.626 7.428s-0.55 5.073-1.626 7.428c-1.075 2.351-2.645 4.493-4.629 6.293z" />
<glyph unicode="&#xe907;" glyph-name="arrows-clockwise" d="M872.516 874.667c-11.26 0-22.059-4.495-30.020-12.497s-12.433-18.854-12.433-30.17v-80.183c-60.476 59.618-137.331 99.665-220.659 114.982s-169.31 5.201-246.867-29.044c-77.556-34.246-143.13-91.051-188.27-163.094s-67.778-156.022-64.996-241.116c2.782-85.090 30.857-167.398 80.606-236.305 49.749-68.911 118.892-121.267 198.518-150.319 79.625-29.056 166.085-33.476 248.231-12.693 82.15 20.783 156.224 65.813 212.672 129.293 7.39 8.448 11.157 19.486 10.487 30.716-0.67 11.226-5.722 21.734-14.059 29.235-8.337 7.505-19.285 11.392-30.464 10.825-11.174-0.567-21.675-5.547-29.218-13.858-46.306-52.369-107.503-89.178-175.309-105.434-67.806-16.26-138.948-11.183-203.788 14.537-64.842 25.724-120.253 70.848-158.734 129.267s-58.171 127.313-56.405 197.35c1.766 70.037 24.902 137.841 66.276 194.227s98.989 98.633 165.043 121.021c66.055 22.388 137.36 23.837 204.257 4.148 66.901-19.688 126.165-59.561 169.775-114.221h-136.905c-11.26 0-22.059-4.495-30.020-12.497s-12.433-18.854-12.433-30.17c0-11.316 4.471-22.168 12.433-30.17s18.761-12.497 30.020-12.497h212.262c11.26 0 22.054 4.495 30.016 12.497s12.437 18.854 12.437 30.17v213.333c0 11.316-4.476 22.168-12.437 30.17s-18.756 12.497-30.016 12.497z" />
<glyph unicode="&#xe908;" glyph-name="arrow-up" d="M469.312 728.992l-225.835-225.833c-16.64-16.64-43.691-16.64-60.331 0s-16.64 43.689 0 60.329l298.667 298.667c16.64 16.683 43.691 16.683 60.331 0l298.667-298.667c16.64-16.64 16.64-43.689 0-60.329s-43.691-16.64-60.331 0l-225.835 225.833v-665.001c0-23.552-19.115-42.667-42.667-42.667s-42.667 19.115-42.667 42.667v665.001z" />
<glyph unicode="&#xe909;" glyph-name="arrow-up-right" d="M829.884 198.601c18.052 0.013 34.415 7.36 46.263 19.204 11.844 11.844 19.191 28.211 19.2 46.259l0.653 502.64c0.055 36.109-29.188 65.353-65.297 65.296l-502.64-0.652c-36.097-0.024-65.436-29.363-65.463-65.463-0.056-36.108 29.186-65.35 65.294-65.294l352.239 0.446-534.138-534.139c-23.765-23.765-24.022-62.037-0.576-85.483s61.717-23.189 85.482 0.576l534.139 534.14-0.448-352.239c-0.060-36.109 29.184-65.353 65.293-65.293z" />
<glyph unicode="&#xe90a;" glyph-name="arrow-up-right-bold" d="M512 874.667c-84.386 0-166.878-25.024-237.043-71.906s-124.852-113.519-157.145-191.482c-32.294-77.962-40.743-163.752-24.28-246.517s57.099-158.788 116.77-218.462c59.67-59.669 135.695-100.305 218.46-116.766 82.765-16.465 168.555-8.017 246.515 24.277 77.965 32.294 144.602 86.98 191.484 157.146s71.906 152.657 71.906 237.043c-0.119 113.123-45.111 221.577-125.099 301.567-79.991 79.989-188.446 124.98-301.568 125.1zM676.105 382.357c0-8.704-3.46-17.050-9.613-23.206-6.157-6.153-14.507-9.613-23.211-9.613s-17.050 3.46-23.206 9.613c-6.157 6.157-9.613 14.502-9.613 23.206v117.705l-206.523-206.562c-3.049-3.051-6.67-5.47-10.654-7.121s-8.254-2.5-12.567-2.5c-4.312 0-8.583 0.849-12.567 2.5s-7.604 4.070-10.653 7.121c-3.049 3.046-5.468 6.669-7.119 10.65-1.65 3.985-2.5 8.256-2.5 12.57s0.849 8.58 2.5 12.565c1.65 3.985 4.069 7.603 7.119 10.654l206.564 206.524h-117.705c-8.704 0-17.050 3.458-23.206 9.613-6.155 6.155-9.613 14.503-9.613 23.208s3.458 17.053 9.613 23.207c6.156 6.155 14.502 9.613 23.206 9.613h196.924c8.704 0 17.054-3.458 23.211-9.613 6.153-6.155 9.613-14.503 9.613-23.207v-196.925z" />
<glyph unicode="&#xe90b;" glyph-name="bank" d="M89.805 32.077c4.663-6.716 12.329-10.743 20.532-10.743h803.327c8.205 0 15.868 4.028 20.531 10.743 4.685 6.737 5.76 15.33 2.88 23.019-9.741 26.052-27.951 48.905-35.349 57.498-4.736 5.542-11.669 8.738-18.97 8.738h-741.511c-7.3 0-14.234-3.196-18.97-8.738-7.397-8.593-25.61-31.445-35.352-57.498-2.88-7.689-1.807-16.282 2.882-23.019zM185.334 472.998h151.667v-301.666h-151.667v301.666zM437.001 472.998h149.999v-301.666h-149.999v301.666zM687.002 472.998h151.667v-301.666h-151.667v301.666zM139.445 530.359c4.693-4.71 11.225-7.36 17.685-7.36l709.716 0.017c6.46 0 13.018 2.628 17.711 7.343 5.086 5.088 43.102 44.679 54.11 92.639h-853.333c11.008-47.96 49.023-87.552 54.112-92.639zM922.756 673l-399.573 199.030c-7.031 3.515-15.33 3.515-22.362 0l-399.576-199.030h821.511z" />
<glyph unicode="&#xe90c;" glyph-name="CalendarX" d="M810.667 789.333h-42.667v42.667c0 23.458-19.209 42.667-42.667 42.667s-42.667-19.209-42.667-42.667v-42.667h-341.333v42.667c0 23.458-19.209 42.667-42.667 42.667s-42.667-19.209-42.667-42.667v-42.667h-42.667c-70.396 0-128-57.604-128-128v-512c0-70.396 57.604-128 128-128h597.333c70.396 0 128 57.604 128 128v512c0 70.396-57.604 128-128 128zM670.293 307.627c16.644-16.649 16.644-43.938 0-60.587-8.542-8.102-19.209-12.373-30.293-12.373s-21.751 4.271-30.293 12.373l-97.707 98.125-97.708-98.125c-8.541-8.102-19.208-12.373-30.292-12.373s-21.75 4.271-30.292 12.373c-16.646 16.649-16.646 43.938 0 60.587l98.123 97.707-98.123 97.707c-16.646 16.649-16.646 43.939 0 60.585s43.937 16.646 60.583 0l97.708-98.123 97.707 98.123c16.649 16.646 43.938 16.646 60.587 0 16.644-16.646 16.644-43.936 0-60.585l-98.125-97.707 98.125-97.707z" />
<glyph unicode="&#xe90d;" glyph-name="caret-down" d="M511.996 208c-15.292 0-30.583 5.764-42.244 17.263l-366.913 362.071c-23.34 23.032-23.34 60.375 0 83.398 23.331 23.023 61.166 23.023 84.509 0l324.649-320.379 324.655 320.368c23.339 23.023 61.171 23.023 84.501 0 23.351-23.023 23.351-60.366 0-83.398l-366.908-362.073c-11.669-11.499-26.961-17.25-42.249-17.25z" />
<glyph unicode="&#xe90e;" glyph-name="caret-left" d="M272 448c0-15.296 5.762-30.588 17.263-42.244l362.074-366.916c23.031-23.343 60.373-23.343 83.396 0 23.023 23.33 23.023 61.167 0 84.51l-320.381 324.651 320.369 324.652c23.023 23.34 23.023 61.172 0 84.501-23.023 23.352-60.365 23.352-83.396 0l-362.072-366.909c-11.502-11.665-17.251-26.957-17.251-42.244z" />
<glyph unicode="&#xe90f;" glyph-name="caret-right" d="M752.209 448c0-15.296-5.764-30.588-17.263-42.244l-362.072-366.916c-23.032-23.343-60.375-23.343-83.398 0-23.023 23.33-23.023 61.167 0 84.51l320.381 324.651-320.369 324.652c-23.023 23.34-23.023 61.172 0 84.501 23.023 23.352 60.366 23.352 83.398 0l362.074-366.909c11.499-11.665 17.25-26.957 17.25-42.244z" />
<glyph unicode="&#xe910;" glyph-name="caret-up" d="M554.244 670.734l366.908-362.083c23.351-23.031 23.351-60.361 0-83.383-23.33-23.023-61.171-23.023-84.501 0l-324.651 320.375-324.652-320.375c-23.343-23.023-61.18-23.023-84.509 0-23.34 23.023-23.34 60.365 0 83.396l366.917 362.081c11.669 11.506 26.948 17.255 42.244 17.255 15.287 0 30.579-5.76 42.244-17.266z" />
<glyph unicode="&#xe911;" glyph-name="casino" d="M533.385 448c0-11.81-9.574-21.389-21.385-21.389-11.819 0-21.389 9.579-21.389 21.389 0 11.814 9.57 21.389 21.389 21.389 11.81 0 21.385-9.574 21.385-21.389zM811.426 448c0 165.371-134.054 299.427-299.426 299.427s-299.427-134.056-299.427-299.427c0-165.372 134.056-299.426 299.427-299.426 165.295 0.188 299.238 134.131 299.426 299.426zM640.329 405.227c-15.014 0.183-28.804 8.329-36.207 21.385h-31.902c-6.455-18.116-20.715-32.375-38.831-38.831v-31.902c13.065-7.403 21.21-21.193 21.393-36.207 0-23.625-19.157-42.773-42.782-42.773s-42.773 19.149-42.773 42.773c0.183 15.014 8.329 28.804 21.385 36.207v31.902c-18.116 6.464-32.375 20.715-38.831 38.831h-31.903c-7.402-13.056-21.191-21.201-36.204-21.385-23.626 0-42.773 19.149-42.773 42.773s19.147 42.782 42.773 42.782c15.013-0.183 28.802-8.329 36.204-21.393h31.903c6.455 18.116 20.715 32.375 38.831 38.831v31.903c-13.056 7.402-21.201 21.191-21.385 36.204 0 23.626 19.149 42.773 42.773 42.773s42.782-19.147 42.782-42.773c-0.183-15.013-8.329-28.796-21.393-36.204v-31.903c18.116-6.455 32.375-20.715 38.831-38.831h31.902c7.403 13.065 21.193 21.21 36.207 21.393 23.625 0 42.773-19.157 42.773-42.782s-19.149-42.773-42.773-42.773zM170.887 426.611h-85.553c2.897-60.467 18.698-119.62 46.348-173.474l74.199 42.833c-20.319 40.755-32.22 85.188-34.993 130.641zM170.887 469.389c2.773 45.461 14.681 89.887 35 130.649l-74.199 42.825c-27.65-53.854-43.457-113.007-46.354-173.475h85.553zM853.111 426.611c-2.773-45.453-14.677-89.886-34.999-130.641l74.202-42.833c27.648 53.854 43.456 113.007 46.353 173.474h-85.555zM664.051 141.892c-40.764-20.326-85.201-32.23-130.662-35.004v-85.555c60.48 2.897 119.642 18.705 173.5 46.362l-42.837 74.197zM490.611 21.333v85.555c-45.466 2.778-89.907 14.686-130.668 35.004l-42.839-74.193c53.867-27.657 113.027-43.46 173.507-46.366zM533.389 874.667v-85.553c45.461-2.78 89.899-14.688 130.662-35.006l42.837 74.193c-53.858 27.656-113.020 43.47-173.5 46.367zM322.833 163.098c-37.923 25.267-70.462 57.801-95.729 95.723l-74.004-42.722c32.943-50.795 76.218-94.067 127.012-127.006l42.721 74.005zM796.894 258.82c-25.263-37.922-57.805-70.455-95.727-95.723l42.726-74.005c50.795 32.939 94.071 76.22 127.006 127.006l-74.005 42.722zM359.943 754.107c40.762 20.326 85.203 32.233 130.668 35.006v85.553c-60.48-2.897-119.64-18.705-173.507-46.361l42.839-74.199zM227.104 637.186c25.267 37.917 57.806 70.449 95.723 95.723l-42.721 73.998c-50.794-32.937-94.069-76.218-127.005-127.005l74.004-42.715zM818.112 600.038c20.322-40.762 32.222-85.188 34.999-130.649h85.555c-2.906 60.471-18.705 119.62-46.353 173.481l-74.202-42.832zM701.167 732.902c37.922-25.267 70.464-57.8 95.727-95.723l74.005 42.721c-32.934 50.788-76.215 94.069-127.006 127.005l-42.726-74.004z" />
<glyph unicode="&#xe912;" glyph-name="check" d="M918.839 747.34c-26.402 27.555-69.278 27.538-95.714 0l-430.774-449.010-191.461 199.556c-26.438 27.554-69.292 27.554-95.729 0s-26.438-72.222 0-99.78l239.315-249.434c13.21-13.769 30.533-20.672 47.857-20.672s34.662 6.886 47.872 20.672l478.635 498.892c26.436 27.537 26.436 72.222 0 99.776z" />
<glyph unicode="&#xe913;" glyph-name="check-bold" d="M904.708 742.784c-45.167 45-118.165 45-163.332 0l-344.168-344.166-114.667 114.667c-45.167 44.999-118.167 44.999-163.333 0-45.167-45.167-45.167-118.17 0-163.332l196.333-196.501c45.167-45.167 118.165-45.167 163.332 0l426.001 425.833c45.001 45.167 45.001 118.333-0.166 163.5z" />
<glyph unicode="&#xe914;" glyph-name="check-circle-fill" d="M512 874.667c-84.386 0-166.878-25.024-237.043-71.906s-124.852-113.519-157.145-191.482c-32.294-77.962-40.743-163.752-24.28-246.517s57.099-158.788 116.77-218.462c59.67-59.669 135.695-100.305 218.46-116.766 82.765-16.465 168.555-8.017 246.515 24.277 77.965 32.294 144.602 86.98 191.484 157.146s71.906 152.657 71.906 237.043c-0.119 113.123-45.111 221.577-125.099 301.567-79.991 79.989-188.446 124.98-301.568 125.1zM699.324 523.243l-229.743-229.747c-3.051-3.051-6.669-5.47-10.654-7.121s-8.256-2.505-12.57-2.505c-4.309 0-8.58 0.853-12.565 2.505s-7.605 4.070-10.653 7.121l-98.461 98.462c-6.159 6.161-9.618 14.511-9.618 23.223 0 8.708 3.46 17.062 9.618 23.219s14.511 9.617 23.22 9.617c8.71 0 17.062-3.46 23.22-9.617l75.239-75.281 206.524 206.563c3.051 3.049 6.669 5.469 10.654 7.119s8.256 2.499 12.57 2.499c4.309 0 8.58-0.849 12.565-2.499s7.603-4.070 10.654-7.119c3.051-3.049 5.466-6.669 7.117-10.653s2.5-8.254 2.5-12.567c0-4.312-0.849-8.582-2.5-12.567s-4.066-7.606-7.117-10.652z" />
<glyph unicode="&#xe915;" glyph-name="Clock" d="M792.538 603.235l15.002 14.978c6.763 6.752 6.763 17.699 0 24.451l-31.919 31.869c-6.763 6.752-17.724 6.752-24.486 0l-15.002-14.978c-51.725 41.443-115.153 68.859-184.333 76.51v82.249h-79.821v-82.036c-179.223-19.977-319.281-171.935-319.281-356.198 0-206.225 175.414-372.655 385.286-357.824 175.765 12.416 318.148 153.455 332.151 328.828 7.629 95.539-22.844 183.992-77.598 252.152zM636.378 340.126h-143.949c-11.294 0-20.45 9.139-20.45 20.416v198.259c0 11.277 9.156 20.418 20.45 20.418h38.921c11.294 0 20.45-9.141 20.45-20.418v-138.978h84.578c11.294 0 20.45-9.143 20.45-20.42v-38.861c0-11.277-9.156-20.416-20.45-20.416zM618.671 874.667h-213.348c-8.951 0-16.208-7.245-16.208-16.183v-59.551c0-8.937 7.256-16.183 16.208-16.183h213.348c8.951 0 16.205 7.246 16.205 16.183v59.551c0 8.938-7.253 16.183-16.205 16.183z" />
<glyph unicode="&#xe916;" glyph-name="ClockCountdown" d="M309.581 388.267c0-110.933 88.558-204.8 202.419-204.8 41.417 0 80.427 12.177 113.391 34.688 16.922 11.554 19.294 35.866 4.86 50.47l-118.251 119.642v164.587c0 20.376-18.249 36.131-38.033 32.306-92.238-17.83-164.386-99.067-164.386-196.893zM149.333 388.267c0-200.533 160.248-366.933 362.667-366.933 198.199 0 362.667 162.133 362.667 366.933 0 98.133-37.952 183.467-96.994 247.467l23.492 23.765c12.646 12.796 12.646 33.541 0 46.337l-13.244 13.396c-12.646 12.796-33.152 12.796-45.798 0l-27.703-28.032c-46.387 34.133-101.21 55.467-160.247 59.733v42.667h9.783c17.886 0 32.384 14.669 32.384 32.765v15.537c0 18.096-14.498 32.765-32.384 32.765h-95.479c-17.886 0-32.384-14.669-32.384-32.765v-15.537c0-18.096 14.498-32.765 32.384-32.765h9.788v-42.667c-185.55-21.333-328.93-174.933-328.93-362.667zM229.457 388.267c0 157.867 126.511 285.867 282.543 285.867s282.543-128 282.543-285.867c0-157.867-126.511-285.867-282.543-285.867s-282.543 128-282.543 285.867z" />
<glyph unicode="&#xe917;" glyph-name="coins" d="M146.229 298.291c-33.645 0-60.896 26.799-60.896 59.883v29.943c0 33.084 27.251 59.883 60.896 59.883h196.45c-8.251-28.595-12.971-58.654-12.971-89.826 0-20.48 2.162-40.418 5.815-59.883h-189.295zM207.125 657.591h318.789c30.874 13.893 64.183 23.384 99.23 27.456 6.153 9.372 9.835 20.45 9.835 32.427v29.941c0 33.085-27.251 59.883-60.894 59.883h-366.959c-33.645 0-60.896-26.798-60.896-59.883v-29.941c0-33.085 27.251-59.883 60.896-59.883zM207.125 477.943h145.846c24.236 60.749 66.163 112.698 119.691 149.705h-265.536c-33.645 0-60.896-26.798-60.896-59.883v-29.942c0-33.086 27.251-59.881 60.896-59.881zM207.125 268.352c-33.645 0-60.896-26.799-60.896-59.883v-29.943c0-33.084 27.251-59.883 60.896-59.883h228.327c-43.477 40.273-75.996 91.682-92.773 149.709h-135.554zM938.667 358.174c0-148.57-122.948-269.474-274.031-269.474s-274.031 120.905-274.031 269.474c0 148.57 122.949 269.475 274.031 269.475s274.031-120.905 274.031-269.475zM634.189 403.089c0 8.265 6.818 14.967 15.223 14.967h74.321c16.811 0 30.451 13.414 30.451 29.943s-13.641 29.943-30.451 29.943h-28.651v29.939c0 16.529-13.641 29.942-30.447 29.942s-30.447-13.413-30.447-29.942v-29.939c0-0.542 0.273-0.96 0.303-1.498-34.833-6.857-61.201-37.129-61.201-73.357 0-41.263 34.163-74.854 76.122-74.854h28.651c8.405 0 15.223-6.707 15.223-16.29 0-8.265-6.818-14.972-15.223-14.972h-74.325c-16.806 0-30.447-13.41-30.447-29.939s13.641-29.943 30.447-29.943h30.451v-28.621c0-16.529 13.641-29.943 30.447-29.943s30.447 13.414 30.447 29.943v29.939c0 0.239-0.119 0.448-0.154 0.691 33.86 7.603 59.255 37.487 59.255 74.163 0 41.259-34.163 74.854-76.122 74.854h-28.651c-8.405 0-15.223 6.707-15.223 14.972z" />
<glyph unicode="&#xe918;" glyph-name="collapse" d="M85.333 192c0 80.452 0 120.678 24.994 145.673s65.22 24.994 145.673 24.994c80.453 0 120.68 0 145.673-24.994s24.994-65.22 24.994-145.673c0-80.452 0-120.678-24.994-145.673s-65.22-24.994-145.673-24.994c-80.453 0-120.68 0-145.673 24.994s-24.994 65.22-24.994 145.673zM147.817 812.183c62.484 62.484 163.050 62.484 364.183 62.484 201.131 0 301.7 0 364.181-62.484 62.485-62.484 62.485-163.050 62.485-364.183 0-201.131 0-301.7-62.485-364.181-62.481-62.485-163.051-62.485-364.181-62.485-16.879 0-33.045 0-48.546 0.038 14.217 21.679 20.437 45.564 23.518 68.467 3.703 27.546 3.699 61.406 3.695 98.342v7.637c0.004 36.932 0.009 70.797-3.695 98.342-4.079 30.336-13.675 62.396-40.043 88.768-26.371 26.368-58.432 35.964-88.767 40.043-27.546 3.703-61.41 3.699-98.343 3.695h-7.637c-36.934 0.004-70.797 0.009-98.343-3.695-22.903-3.081-46.79-9.306-68.468-23.518-0.037 15.497-0.037 31.667-0.037 48.546 0 201.133 0 301.699 62.484 364.183zM672 416c17.673 0 32 14.327 32 32s-14.327 32-32 32h-82.743l158.703 158.706c12.497 12.497 12.497 32.758 0 45.255s-32.755 12.497-45.252 0l-158.707-158.704v82.743c0 17.673-14.327 32-32 32s-32-14.327-32-32v-160c0-17.673 14.327-32 32-32h160z" />
<glyph unicode="&#xe919;" glyph-name="copy" d="M469.333 128h243.2c-12.617-31.535-34.411-58.56-62.554-77.577s-61.346-29.15-95.313-29.090h-298.667c-22.414-0.004-44.61 4.403-65.318 12.979s-39.526 21.146-55.375 36.992c-15.849 15.851-28.42 34.667-36.995 55.377s-12.985 42.906-12.978 65.318v341.334c0.050 41.56 15.238 81.679 42.723 112.854s65.383 51.271 106.61 56.53v-340.052c0-129.28 105.386-234.667 234.668-234.667zM832 693.335h90.453c-2.624 3.845-5.623 7.418-8.96 10.666l-145.493 145.5c-3.14 3.322-6.733 6.189-10.667 8.52v-90.020c0.094-19.773 7.991-38.711 21.973-52.693s32.922-21.879 52.693-21.973zM832 629.334c-36.753 0.071-71.983 14.703-97.971 40.693-25.993 25.99-40.623 61.219-40.695 97.973v106.666h-224c-22.413 0.006-44.609-4.404-65.318-12.978s-39.526-21.146-55.375-36.995c-15.849-15.849-28.421-34.665-36.995-55.375s-12.985-42.905-12.979-65.319v-341.334c-0.006-22.413 4.404-44.612 12.98-65.318 8.575-20.71 21.146-39.526 36.995-55.377 15.849-15.846 34.666-28.416 55.375-36.992s42.905-12.983 65.318-12.979h298.667c22.413-0.004 44.608 4.403 65.318 12.979s39.526 21.146 55.373 36.992c15.851 15.851 28.42 34.667 36.996 55.377s12.983 42.906 12.979 65.318v266.668h-106.667z" />
<glyph unicode="&#xe91a;" glyph-name="crypto" d="M566.579 564.221c-8.742 8.742-20.847 14.121-34.295 14.121h-72.845v-97.28h72.845c42.769 0 65.161 51.507 34.295 83.159zM459.439 433.993v-114.991h86.071c51.554 0 76.838 62.694 40.572 98.176-22.417 22.417-42.231 16.815-126.643 16.815zM938.667 447.889c0 235.803-190.976 426.778-426.556 426.778s-426.778-190.974-426.778-426.778c0-235.58 191.199-426.556 426.778-426.556s426.556 190.976 426.556 426.556zM673.946 296.589c-19.051-19.277-45.726-31.159-75.089-31.159h-57.382v-71.053h-48.862v71.053h-35.191v-71.053h-48.865v71.053h-89.659v48.64h54.468v267.635h-54.468v48.864h89.659v71.055h48.865v-71.055h35.191v71.055h48.862v-71.055h56.486c42.142 0 76.211-34.071 76.211-76.21 0-21.072-8.516-40.123-22.191-54.019-13.675-13.449-32.503-21.969-53.124-22.191 58.726 0 106.249-47.744 106.249-106.47 0-29.363-11.883-56.038-31.159-75.089z" />
<glyph unicode="&#xe91b;" glyph-name="currency-circle-dollar" d="M512 874.667c-235.633 0-426.667-191.033-426.667-426.667s191.033-426.667 426.667-426.667c235.635 0 426.667 191.031 426.667 426.667 0 235.633-191.031 426.667-426.667 426.667zM566.374 267.473c-12.834-5.239-23.027-16.384-23.39-30.238-0.307-7.987-3.708-15.543-9.481-21.065-5.777-5.525-13.474-8.589-21.466-8.542s-15.65 3.204-21.359 8.794c-5.709 5.594-9.020 13.188-9.229 21.18-0.367 13.683-10.249 25.101-22.912 30.298-15.625 6.413-29.564 16.589-40.496 29.777-16.049 19.358-24.521 43.887-23.843 69.022-2.25 20.817 6.55 41.186 29.9 41.886 7.87 0.277 15.542-2.526 21.379-7.817 5.833-5.295 9.37-12.655 9.856-20.518 0.448-6.451 0.149-12.732 0.431-18.965 0.299-5.551 1.685-10.991 4.087-16.004 2.402-5.018 5.769-9.506 9.907-13.218 4.143-3.712 8.973-6.571 14.217-8.41 5.248-1.843 10.807-2.628 16.358-2.321 10.381-0.282 24.064-0.397 33.050 0.87 40.58 4.599 48.465 64.098 10.85 79.531-27.17 11.669-54.566 22.4-80.137 32.269-93.788 33.903-89.879 160.726-6.020 194.237 12.915 5.161 22.925 16.626 23.322 30.528 0.222 7.988 3.558 15.573 9.293 21.137s13.419 8.667 21.406 8.646c3.998 0.066 7.966-0.659 11.678-2.134s7.095-3.67 9.954-6.459c2.863-2.789 5.141-6.116 6.707-9.79 1.57-3.674 2.394-7.622 2.428-11.617 0.316-13.643 10.441-24.89 23.057-30.097 37.325-15.409 64.73-53.883 64.311-94.77 0-5.431 0.081-10.867-0.085-16.448-0.213-7.834-3.426-15.279-8.973-20.809s-13.009-8.721-20.838-8.909c-7.829-0.192-15.437 2.633-21.244 7.885-5.811 5.252-9.382 12.535-9.975 20.348-0.469 6.332-0.166 12.433-0.418 18.516-0.311 10.758-4.779 20.978-12.459 28.518s-17.98 11.816-28.74 11.932c-31.518 1.25-64.499 2.25-71.552-35.833-2.65-19.634 6.801-37.085 24.085-44.449 43.132-21.316 109.397-31.966 134.997-76.668 34.65-52.045 6.788-127.667-48.657-150.293z" />
<glyph unicode="&#xe91c;" glyph-name="default" d="M512 96c-194.404 0-352 157.598-352 352 0 194.404 157.596 352 352 352 194.402 0 352-157.596 352-352 0-194.402-157.598-352-352-352zM512 32c229.751 0 416 186.249 416 416s-186.249 416-416 416c-229.751 0-416-186.249-416-416s186.249-416 416-416z" />
<glyph unicode="&#xe91d;" glyph-name="digital-wallet" d="M694.857 362.667c0-75.61 61.534-137.143 137.143-137.143h106.667v-121.903c0-33.677-27.277-60.954-60.954-60.954h-304.759v219.763c26.88 11.763 45.713 38.524 45.713 69.76 0 42.086-34.103 76.19-76.19 76.19s-76.19-34.103-76.19-76.19c0-31.236 18.833-57.997 45.713-69.76v-219.763h-91.429v152.38c0 10.517-5.425 20.267-14.324 25.843l-62.964 39.347c7.040 48.397-30.598 87.194-75.093 87.194-42.087 0-76.19-34.103-76.19-76.194 0-61.743 69.303-97.067 119.223-62.839l48.396-30.263v-135.467h-213.333c-33.676 0-60.952 27.277-60.952 60.954v643.046c0 58.91 47.756 106.667 106.667 106.667h586.667c21.030 0 38.097-17.067 38.097-38.095s-17.067-38.095-38.097-38.095h-579.048c-20.968 0-38.095-17.128-38.095-38.095s17.128-38.095 38.095-38.095h678.094c33.677 0 60.954-27.276 60.954-60.952v-140.19h-106.667c-75.61 0-137.143-61.534-137.143-137.143zM832 438.857h106.667v-152.38h-106.667c-41.997 0-76.19 34.163-76.19 76.19s34.193 76.19 76.19 76.19z" />
<glyph unicode="&#xe91e;" glyph-name="event" d="M346.292 697.6c-17.037 0-30.974 13.41-30.974 30.476v87.771c-115.224-4.57-207.526-98.132-207.526-212.723v-368.458c0-117.636 97.259-213.333 216.818-213.333h374.787c119.556 0 216.815 95.697 216.815 213.333v368.458c0 114.591-92.301 208.153-207.526 212.723v-87.771c0-17.067-13.935-30.476-30.972-30.476-17.344 0-30.976 13.41-30.976 30.476v88.381h-269.471v-88.381c0-17.067-13.629-30.476-30.974-30.476zM405.452 536.687c4.647 0.608 8.982 3.352 11.15 7.924l26.641 53.333c13.005 25.904 39.334 42.055 68.762 42.055 29.423 0 55.753-16.151 68.757-42.055l26.641-53.638c2.167-4.267 6.502-7.011 11.149-7.619l60.092-8.841c29.116-3.959 52.655-23.77 61.948-51.2 8.981-27.426 1.549-56.99-19.516-77.103l-43.362-41.754c-3.409-3.354-4.954-8.226-4.335-12.8l10.219-58.82c4.958-28.646-6.502-56.99-30.353-73.749-23.851-17.067-54.827-19.2-80.533-5.79l-53.897 27.733c-4.335 2.133-9.289 2.436-13.623 0l-53.897-27.733c-11.153-5.79-23.539-8.841-35.62-8.841-15.797 0-31.284 4.877-44.913 14.63-23.851 16.759-35.311 45.103-30.354 73.749l10.22 58.82c0.62 4.574-0.928 9.446-4.335 12.8l-43.364 41.754c-21.062 20.113-28.496 49.677-19.514 77.103 9.292 27.43 32.832 47.241 61.948 51.2l60.090 8.841zM346.292 874.667c-17.037 0-30.974-13.715-30.974-30.476v-28.343c3.097 0.61 6.193 0.61 9.292 0.61h52.656v27.732c0 16.762-13.629 30.476-30.974 30.476zM708.685 815.848v28.343c0 16.762-13.935 30.476-30.972 30.476-17.344 0-30.976-13.715-30.976-30.476v-27.732h52.659c3.098 0 6.195 0 9.289-0.61zM345.982 443.123l43.673-41.749c17.965-17.374 26.329-42.364 21.992-66.743l-10.222-58.82c-1.548-7.923 3.407-12.497 5.885-14.020 2.168-1.826 8.053-4.873 15.177-1.216l53.895 27.729c11.153 5.794 23.232 8.538 35.622 8.538s24.465-2.743 35.618-8.538l53.897-27.729c7.121-3.657 13.009-0.61 15.177 1.216 2.479 1.523 7.433 6.097 5.884 14.020l-10.223 58.82c-4.335 24.38 4.028 49.37 21.995 66.743l43.674 41.749c5.884 5.487 4.335 12.19 3.716 14.63-0.93 2.743-3.716 8.836-12.079 9.754l-60.092 8.836c-24.781 3.354-46.46 18.893-57.613 41.143l-26.948 53.638c-3.405 7.009-10.219 7.922-13.005 7.922-2.79 0-9.604-0.913-13.009-7.922l-26.948-53.638c-11.153-22.251-32.832-37.79-57.922-41.143l-59.782-8.836c-8.362-0.917-11.15-7.010-12.079-9.754-0.62-2.441-2.168-9.143 3.717-14.63z" />
<glyph unicode="&#xe91f;" glyph-name="expand" d="M85.333 448c0 201.133 0 301.699 62.484 364.183s163.050 62.484 364.183 62.484c201.131 0 301.7 0 364.181-62.484 62.485-62.484 62.485-163.050 62.485-364.183 0-201.131 0-301.7-62.485-364.181-62.481-62.485-163.051-62.485-364.181-62.485-201.133 0-301.699 0-364.183 62.485-62.484 62.481-62.484 163.051-62.484 364.181zM454.916 214.618c0-19.473-15.787-35.26-35.261-35.26h-141.038c-19.473 0-35.26 15.787-35.26 35.26v141.035c0 19.473 15.787 35.26 35.26 35.26s35.259-15.787 35.259-35.26v-55.91l104.354 104.35c13.769 13.769 36.093 13.769 49.861 0s13.769-36.092 0-49.865l-104.349-104.35h55.912c19.474 0 35.261-15.787 35.261-35.26zM604.343 716.642c-19.473 0-35.26-15.787-35.26-35.259s15.787-35.259 35.26-35.259h55.915l-104.35-104.352c-13.769-13.772-13.769-36.095 0-49.863s36.092-13.769 49.86 0l104.354 104.351v-55.914c0-19.471 15.787-35.258 35.26-35.258s35.26 15.787 35.26 35.258v141.037c0 19.472-15.787 35.259-35.26 35.259h-141.039z" />
<glyph unicode="&#xe920;" glyph-name="eye" d="M321.675 448.009c0 100.873 85.325 182.955 190.338 182.955 104.905 0 190.229-82.080 190.229-182.955 0-100.894-85.325-182.938-190.229-182.938-105.015 0-190.338 82.044-190.338 182.938zM106.667 512c-3.281-5.709-21.333-45.525-21.333-64 0-18.479 18.051-58.287 21.333-64 85.212-147.14 230.397-213.333 405.346-213.333 174.835 0 320.107 66.193 405.321 213.333 4.727 8.162 21.606 36.164 21.333 64.009-0.286 29.163-17.92 58.15-21.333 63.991-85.214 147.14-230.481 213.333-405.321 213.333-174.949 0-320.134-66.193-405.346-213.333zM512.013 571.005c-70.613 0-127.987-55.17-127.987-122.997 0-67.823 57.373-122.991 127.987-122.991 70.502 0 127.876 55.168 127.876 122.991 0 67.827-57.374 122.997-127.876 122.997z" />
<glyph unicode="&#xe921;" glyph-name="eye-slash" d="M895.117 793.065l-122.266-125.761c13.581-8.855 26.487-18.154 38.643-27.748 38.144-30.112 69.44-63.555 91.401-96.102 21.538-31.928 35.772-65.498 35.772-95.454s-14.234-63.531-35.772-95.454c-21.961-32.55-53.257-65.993-91.401-96.102-76.19-60.147-181.922-108.715-299.494-108.715-72.222 0-139.984 18.33-199.17 46.413l-136.31-140.203c-13.155-13.534-34.482-13.534-47.636 0-13.155 13.53-13.155 35.465 0 48.994l718.596 739.13c13.158 13.53 34.479 13.53 47.637 0 13.154-13.53 13.154-35.468 0-48.998zM652.518 543.534l-49.314-50.721c6.315-13.572 9.847-28.766 9.847-44.813 0-57.404-45.244-103.94-101.052-103.94-15.603 0-30.374 3.635-43.571 10.129l-49.309-50.722c26.627-18.138 58.555-28.702 92.88-28.702 93.018 0 168.422 77.559 168.422 173.235 0 35.307-10.274 68.147-27.904 95.534zM542.054 618.483c3.763-0.697 7.65 0.45 10.355 3.231l87.561 90.060c5.939 6.114 3.473 16.504-4.625 18.827-38.955 11.178-80.358 17.67-123.345 17.67-117.57 0-223.303-48.569-299.492-108.714-38.144-30.112-69.443-63.555-91.402-96.102-21.541-31.928-35.772-65.498-35.772-95.454s14.231-63.531 35.772-95.454c18.742-27.776 44.287-56.209 75.084-82.667 4.395-3.776 10.853-3.401 14.901 0.759l132.021 135.799c2.703 2.782 3.818 6.775 3.141 10.645-1.757 10.035-2.674 20.365-2.674 30.916 0 95.674 75.405 173.233 168.421 173.233 10.257 0 20.301-0.943 30.054-2.75z" />
<glyph unicode="&#xe922;" glyph-name="facebook" d="M938.667 445.44c0-212.966-156.032-389.483-360-421.483v298.15h99.418l18.914 123.332h-118.332v80.034c0 33.749 16.533 66.633 69.534 66.633h53.798v105c0 0-48.832 8.333-95.514 8.333-97.451 0-161.152-59.067-161.152-166v-94h-108.333v-123.332h108.333v-298.15c-203.967 32-360 208.516-360 421.483 0 235.633 191.033 426.667 426.667 426.667 235.635 0 426.667-191.033 426.667-426.667z" />
<glyph unicode="&#xe923;" glyph-name="filter" d="M705.941 713.481c0 22.503 6.822 44.501 19.61 63.212s30.959 33.294 52.22 41.905c21.265 8.611 44.663 10.865 67.234 6.475s43.307-15.226 59.58-31.139c16.273-15.912 27.358-36.185 31.846-58.256s2.185-44.948-6.622-65.738c-8.806-20.79-23.723-38.56-42.859-51.062s-41.634-19.175-64.649-19.175c-30.861 0-60.459 11.987-82.278 33.324-21.824 21.338-34.082 50.278-34.082 80.453zM124.121 675.555h465.455c10.287 0 20.151 3.996 27.426 11.108s11.362 16.759 11.362 26.818c0 10.059-4.087 19.705-11.362 26.818s-17.139 11.108-27.426 11.108h-465.455c-10.287 0-20.153-3.996-27.427-11.108s-11.361-16.759-11.361-26.818c0-10.059 4.087-19.705 11.361-26.818s17.14-11.108 27.427-11.108zM356.849 561.778c-24.008-0.066-47.407-7.391-66.989-20.971s-34.39-32.75-42.393-54.881h-123.345c-10.287 0-20.153-3.998-27.427-11.11s-11.361-16.755-11.361-26.816c0-10.057 4.087-19.703 11.361-26.816s17.14-11.11 27.427-11.11h123.345c7.116-19.678 19.631-37.065 36.175-50.253 16.544-13.193 36.481-21.679 57.628-24.529 21.147-2.854 42.688 0.034 62.268 8.35 19.579 8.32 36.441 21.739 48.742 38.801 12.301 17.058 19.563 37.099 20.996 57.924s-3.021 41.634-12.873 60.151c-9.856 18.513-24.725 34.024-42.991 44.829-18.264 10.805-39.216 16.489-60.563 16.431zM899.878 485.926h-310.302c-10.287 0-20.156-3.998-27.426-11.11-7.275-7.113-11.362-16.755-11.362-26.816 0-10.057 4.087-19.703 11.362-26.816 7.27-7.113 17.139-11.11 27.426-11.11h310.302c10.287 0 20.151 3.998 27.426 11.11s11.362 16.759 11.362 26.816c0 10.061-4.087 19.703-11.362 26.816s-17.139 11.11-27.426 11.11zM434.423 220.446h-310.302c-10.287 0-20.153-3.998-27.427-11.11s-11.361-16.759-11.361-26.816c0-10.061 4.087-19.708 11.361-26.82s17.14-11.106 27.427-11.106h310.302c10.287 0 20.156 3.994 27.426 11.106 7.275 7.113 11.362 16.759 11.362 26.82 0 10.057-4.087 19.703-11.362 26.816-7.27 7.113-17.139 11.11-27.426 11.11zM899.878 220.446h-123.345c-9.152 25.301-27.153 46.63-50.829 60.211-23.68 13.581-51.503 18.539-78.558 13.999-27.055-4.535-51.597-18.283-69.291-38.801-17.69-20.523-27.396-46.498-27.396-73.335 0-26.842 9.707-52.817 27.396-73.335 17.694-20.523 42.236-34.266 69.291-38.805s54.878 0.422 78.558 14.003c23.676 13.581 41.677 34.906 50.829 60.211h123.345c10.287 0 20.151 3.994 27.426 11.106s11.362 16.759 11.362 26.82c0 10.057-4.087 19.703-11.362 26.816s-17.139 11.11-27.426 11.11z" />
<glyph unicode="&#xe924;" glyph-name="fire" d="M690.125 608.31c-143.787 92.668-76.361 223.463-73.463 228.9 4.198 7.737 4.181 17.255-0.038 24.978-4.215 7.723-12.002 12.478-20.425 12.478-74.014 0-131.977-22.277-172.267-66.215-68.848-75.074-65.654-191.919-64.29-241.813 0.153-5.528 0.282-10.304 0.282-13.852 0-37.045 5.611-71.247 10.562-101.425 3.191-19.447 5.946-36.237 6.437-49.438 0.524-14.135-1.913-17.374-2.016-17.506-0.348-0.439-3.244-2.069-11.070-2.069-8.927 0-15.507 3.089-21.339 10.018-22.775 27.055-24.351 100.919-19.996 141.11 0.779 7.087-1.337 14.187-5.816 19.513-4.478 5.327-10.891 8.373-17.623 8.373-61.274 0-107.062-106.148-107.062-201.052 0-44.617 8.472-88.32 25.18-129.903 16.152-40.196 39.183-76.471 68.46-107.827 60.966-65.289 141.352-101.248 226.348-101.248 85.342 0 165.709 35.452 226.3 99.814 60.429 64.201 93.713 149.137 93.713 239.164 0 114.871-84.847 211.245-141.875 247.999z" />
<glyph unicode="&#xe925;" glyph-name="game-center" d="M459.273 802.807c-8.145 21.108-22.477 39.264-41.118 52.087s-40.721 19.715-63.347 19.773h-157.193c-29.768-0.036-58.306-11.877-79.355-32.925s-32.89-49.588-32.925-79.355v-157.193c0.036-29.768 11.877-58.306 32.925-79.356 21.049-21.047 49.588-32.887 79.355-32.926h157.193c29.768 0.038 58.306 11.878 79.356 32.926 21.047 21.050 32.887 49.588 32.926 79.356v157.193c-0.149 10.527-1.805 20.978-4.919 31.034-0.623 3.225-1.591 6.372-2.897 9.387zM354.807 582.737h-112.281v134.737c0 5.956 2.366 11.668 6.577 15.879s9.923 6.577 15.879 6.577h112.281v-134.737c0-5.956-2.366-11.668-6.577-15.879s-9.923-6.577-15.879-6.577zM933.747 793.42c-0.623 3.21-1.596 6.342-2.897 9.342-8.137 21.117-22.464 39.282-41.109 52.113-18.641 12.831-40.725 19.729-63.356 19.791h-157.193c-29.769-0.036-58.304-11.877-79.356-32.925-21.047-21.049-32.887-49.588-32.926-79.355v-157.193c0.038-29.768 11.878-58.306 32.926-79.356 21.052-21.047 49.587-32.887 79.356-32.926h157.193c29.769 0.038 58.308 11.878 79.356 32.926 21.047 21.050 32.892 49.588 32.926 79.356v157.193c-0.145 10.527-1.801 20.978-4.919 31.034zM826.385 582.737h-112.282v134.737c0 5.956 2.368 11.668 6.579 15.879s9.924 6.577 15.881 6.577h112.277v-134.737c0-5.956-2.364-11.668-6.575-15.879s-9.924-6.577-15.881-6.577zM459.273 331.23c-8.145 21.107-22.477 39.262-41.118 52.083-18.641 12.826-40.721 19.716-63.347 19.776h-157.193c-29.768-0.038-58.306-11.878-79.355-32.926-21.049-21.052-32.89-49.587-32.925-79.356v-157.193c0.036-29.769 11.877-58.308 32.925-79.356s49.588-32.892 79.355-32.926h157.193c29.768 0.034 58.306 11.878 79.356 32.926 21.047 21.047 32.887 49.587 32.926 79.356v157.193c-0.149 10.526-1.805 20.979-4.919 31.036-0.623 3.221-1.591 6.37-2.897 9.387zM354.807 111.159h-112.281v134.737c0 5.952 2.366 11.665 6.577 15.876s9.923 6.579 15.879 6.579h112.281v-134.737c0-5.956-2.366-11.669-6.577-15.881s-9.923-6.575-15.879-6.575zM930.85 331.23c-8.145 21.107-22.477 39.262-41.118 52.083-18.641 12.826-40.721 19.716-63.347 19.776h-157.193c-29.769-0.038-58.304-11.878-79.356-32.926-21.047-21.052-32.887-49.587-32.926-79.356v-157.193c0.038-29.769 11.878-58.308 32.926-79.356 21.052-21.047 49.587-32.892 79.356-32.926h157.193c29.769 0.034 58.308 11.878 79.356 32.926s32.892 49.587 32.926 79.356v157.193c-0.145 10.526-1.801 20.979-4.919 31.036-0.619 3.221-1.591 6.37-2.897 9.387zM826.385 111.159h-112.282v134.737c0 5.952 2.368 11.665 6.579 15.876s9.924 6.579 15.881 6.579h112.277v-134.737c0-5.956-2.364-11.669-6.575-15.881s-9.924-6.575-15.881-6.575z" />
<glyph unicode="&#xe926;" glyph-name="hand-deposit" d="M907.947 536.494h-142.080c-46.080 0-83.627-37.925-83.627-84.701 0-5.478 0.427-10.957 1.707-16.435 8.96-40.034 44.373-68.267 85.333-67.422h138.667c17.067 0 30.72 13.905 30.72 30.758v106.615c0 16.858-13.653 30.762-30.72 30.762v0.422zM768 410.074c-23.467 0-42.667 18.965-42.667 42.142s19.2 42.138 42.667 42.138c23.467 0 42.667-18.961 42.667-42.138s-19.2-42.142-42.667-42.142zM605.44 453.901c0 80.907 68.267 146.645 152.32 146.645h180.48v1.686c0 141.59-87.040 225.027-233.813 225.027h-385.28c-146.773 0-233.813-83.437-233.813-225.027v-184.15c18.773 28.233 42.667 52.672 71.253 71.637 42.24 27.81 91.733 42.56 142.080 42.56 67.84 0 133.12-26.547 180.907-74.167 47.787-47.194 75.093-111.671 75.093-178.671 0-50.146-14.933-99.029-43.093-140.326-19.2-28.233-43.947-51.831-72.533-70.374h265.387c147.2 0 233.813 83.857 233.813 225.451v13.060h-180.907c-84.48 0-152.32 66.159-152.32 147.068l0.427-0.418zM476.16 162.291c23.467 34.556 35.84 75.43 35.84 117.15 0 56.047-22.613 109.564-62.72 148.753s-94.293 61.525-150.613 61.948c-42.24 0-83.627-12.224-118.613-35.401s-62.293-56.047-78.507-94.391c-9.813-23.599-14.933-48.883-15.36-74.59-0.427-16.013 0-31.603 3.413-47.194 2.56-11.802 5.973-23.599 10.667-34.978 2.56-6.741 5.547-13.065 8.533-19.383 0.853-1.685 1.707-3.793 2.987-5.478 9.813-17.698 21.76-33.711 36.267-48.038 13.227-13.065 28.16-24.021 44.373-33.293 20.053-11.379 41.813-19.806 64.853-24.439 17.067-3.371 34.56-4.215 52.053-3.371 24.32 1.263 48.64 5.897 71.253 15.168 38.827 16.013 72.107 42.982 95.573 77.538zM381.013 246.993c0-4.215-1.707-8.427-4.693-11.379-2.987-2.948-7.253-4.634-11.52-4.634s-8.533 1.685-11.52 4.634c-2.56 2.53-3.84 5.901-4.267 9.271 0 0 0 0.422 0 0.845 0 0.418 0 0.841 0 1.263v58.15l-103.253-101.978c0 0-3.413-2.526-5.12-3.371-2.133-0.841-4.267-1.263-6.4-1.263s-4.267 0.422-6.4 1.263c-2.133 0.845-3.84 2.108-5.12 3.371-1.707 1.685-2.56 3.371-3.413 5.056s-1.28 4.215-1.28 6.323c0 2.108 0 4.215 1.28 6.319 1.28 2.108 2.133 3.793 3.413 5.060l103.253 101.978h-58.88c0 0-0.853 0-1.28 0 0 0-0.427 0-0.853 0-3.413 0.422-6.827 1.685-9.387 4.211-2.987 2.953-4.693 7.164-4.693 11.379s1.707 8.427 4.693 11.379c2.987 2.948 7.253 4.634 11.52 4.634h98.56c4.267 0 8.533-1.685 11.52-4.634 2.987-2.953 4.693-7.164 4.693-11.379v-97.344l-0.853 0.845z" />
<glyph unicode="&#xe927;" glyph-name="handshake" d="M612.109 568.717l-33.425-35.383c-28.638-30.319-67.482-47.351-107.981-47.351-40.794 0-79.147 16.819-107.991 47.355l-8.635 9.143c-9.929 10.513-9.929 27.557 0.003 38.068l114.962 121.699c-35.298 23.313-80.504 24.113-117.176 0.083-21.254-13.93-48.518-10.392-66.3 8.604l-37.050 39.578c-9.692 10.354-25.49 10.391-35.227 0.084l-120.677-127.745c-9.707-10.275-9.705-26.933 0.002-37.208l408.983-432.902c18.155-16.051 41.169-19.499 61.705-9.186 16.333 8.196 33.57 27.268 33.037 56.235-0.077 4.241 0.704 8.499 2.453 12.318 4.774 10.415 14.835 16.111 25.041 15.232 15.765-1.37 31.727 5.026 43.814 17.54 11.797 12.215 18.035 28.651 17.114 45.099-0.828 14.724 10.21 27.435 24.107 28.489 20.092 1.519 36.476 11.622 48.704 30.042 9.054 13.636 15.061 31.125 16.849 48.38l-162.313 171.827zM931.388 619.974l-120.845 127.926c-9.707 10.273-25.442 10.273-35.145 0l-43.494-46.042c-18.803-19.907-47.923-22.38-69.235-5.88-42.061 32.564-101.508 27.716-138.278-11.279l-115.773-122.554c17.718-14.479 39.327-22.321 62.081-22.321 27.209 0 52.787 11.215 72.026 31.582l51.405 54.416c4.966 5.256 11.473 7.885 17.984 7.885 6.507 0 13.018-2.629 17.98-7.885l170.466-180.456 130.833 137.399c9.702 10.275 9.702 26.933-0.004 37.207z" />
<glyph unicode="&#xe928;" glyph-name="hand-withdraw" d="M907.947 536.494h-142.080c-46.080 0-83.627-37.925-83.627-84.701 0-5.478 0.427-10.957 1.707-16.435 8.96-40.034 44.373-68.267 85.333-67.422h138.667c17.067 0 30.72 13.905 30.72 30.758v106.615c0 16.858-13.653 30.762-30.72 30.762v0.422zM768 410.074c-23.467 0-42.667 18.965-42.667 42.142s19.2 42.138 42.667 42.138c23.467 0 42.667-18.961 42.667-42.138s-19.2-42.142-42.667-42.142zM605.44 453.901c0 80.907 68.267 146.645 152.32 146.645h180.48v1.686c0 141.59-87.040 225.027-233.813 225.027h-385.28c-147.2 0-233.813-83.437-233.813-225.027v-184.15c18.773 28.233 42.667 52.672 71.253 71.637 42.24 27.81 91.733 42.56 142.080 42.56 67.84 0 133.12-26.547 180.907-74.167 47.787-47.194 75.093-111.671 75.093-178.671 0-50.146-14.933-99.029-43.093-140.326-19.2-28.233-43.947-51.831-72.533-70.374h265.387c147.2 0 233.813 83.857 233.813 225.451v13.060h-180.907c-84.48 0-152.32 66.159-152.32 147.068l0.427-0.418zM121.6 397.009c-23.467-34.551-35.84-75.43-35.84-117.146 0-56.047 22.613-109.564 62.72-148.757 40.107-39.189 94.293-61.521 150.613-61.943 42.24 0 83.627 12.22 118.613 35.396s62.293 56.047 78.507 94.396c9.813 23.595 14.933 48.879 15.36 74.586 0.427 15.59 0 31.603-3.413 47.198-2.56 11.797-5.973 23.599-10.667 34.974-2.56 6.746-5.547 13.065-8.533 19.388-0.853 1.685-1.707 3.789-2.987 5.474-9.813 17.702-21.76 33.715-36.267 48.043-13.227 13.060-28.16 24.017-44.373 33.289-20.053 11.379-41.813 19.806-64.853 24.444-17.067 3.371-34.56 4.211-52.053 3.371-24.32-1.267-48.64-5.901-71.253-15.172-38.827-16.013-72.107-42.982-95.573-77.538zM216.747 312.307c0 4.215 1.707 8.431 4.693 11.379 2.987 2.953 7.253 4.638 11.52 4.638s8.533-1.685 11.52-4.638c2.56-2.526 3.84-5.901 4.267-9.271 0 0 0-0.418 0-0.841s0-0.845 0-1.267v-58.15l103.253 101.978c0 0 3.413 2.53 5.12 3.371 2.133 0.845 4.267 1.267 6.4 1.267s4.267-0.422 6.4-1.267c2.133-0.841 3.84-2.108 5.12-3.371 1.707-1.685 2.56-3.371 3.413-5.056s1.28-4.215 1.28-6.323c0-2.103 0-4.211-1.28-6.319s-2.133-3.793-3.413-5.056l-103.253-101.978h58.88c0 0 0.853 0 1.28 0 0 0 0.427 0 0.853 0 3.413-0.422 6.827-1.69 9.387-4.215 2.987-2.948 4.693-7.164 4.693-11.379 0-4.211-1.707-8.427-4.693-11.375-2.987-2.953-7.253-4.638-11.52-4.638h-98.56c-4.267 0-8.533 1.685-11.52 4.638-2.987 2.948-4.693 7.164-4.693 11.375v97.344l0.853-0.845z" />
<glyph unicode="&#xe929;" glyph-name="hd-nap" d="M176.762 21.333h335.298c-50.377 37.85-88.654 90.94-107.977 152.38h-166.369c-16.823 0-30.476 13.653-30.476 30.477s13.653 30.477 30.476 30.477h153.873c-0.975 10.027-1.492 20.207-1.492 30.477 0 20.877 2.102 41.263 6.094 60.954h-158.475c-16.823 0-30.476 13.653-30.476 30.473 0 16.823 13.653 30.477 30.476 30.477h177.768c14.965 34.197 36.025 65.131 61.804 91.43h-239.572c-16.823 0-30.476 13.653-30.476 30.477s13.653 30.475 30.476 30.475h304.762c4.783 0 9.297-1.097 13.316-3.078 41.724 21.455 88.994 33.554 139.063 33.554 43.337 0 84.574-9.051 121.907-25.387v238.72c0 50.499-40.93 91.429-91.43 91.429h-365.714v-182.857c0-24.259-9.632-47.513-26.79-64.64-17.128-17.158-40.379-26.788-64.639-26.788h-182.857v-487.617c0-24.26 9.632-47.514 26.79-64.64 17.128-17.161 40.379-26.79 64.639-26.79zM112.123 700.739c-11.064-11.063-18.988-24.655-23.226-39.406h179.293c8.077 0 15.849 3.2 21.548 8.93 5.729 5.699 8.928 13.47 8.928 21.547v179.291c-14.751-4.236-28.344-12.16-39.405-23.223l-147.139-147.139zM938.667 265.143c0 134.554-109.257 243.81-243.81 243.81s-243.81-109.257-243.81-243.81c0-134.554 109.257-243.81 243.81-243.81s243.81 109.257 243.81 243.81zM675.81 284.19v133.333h38.093v-133.333h133.333v-38.093h-133.333v-133.333h-38.093v133.333h-133.333v38.093h133.333z" />
<glyph unicode="&#xe92a;" glyph-name="hd-rut" d="M176.762 21.333h335.298c-50.377 37.854-88.654 90.94-107.977 152.38h-166.369c-16.823 0-30.476 13.653-30.476 30.477s13.653 30.477 30.476 30.477h153.873c-0.975 10.027-1.492 20.207-1.492 30.477 0 20.877 2.102 41.263 6.094 60.954h-158.475c-16.823 0-30.476 13.653-30.476 30.477 0 16.819 13.653 30.473 30.476 30.473h177.768c14.965 34.197 36.025 65.131 61.804 91.43h-239.572c-16.823 0-30.476 13.653-30.476 30.477s13.653 30.476 30.476 30.476h304.762c4.783 0 9.297-1.097 13.316-3.078 41.724 21.455 88.994 33.554 139.063 33.554 43.337 0 84.574-9.051 121.907-25.387v238.72c0 50.499-40.93 91.429-91.43 91.429h-365.714v-182.857c0-24.259-9.632-47.513-26.79-64.64-17.128-17.158-40.379-26.789-64.639-26.789h-182.857v-487.618c0-24.26 9.632-47.514 26.79-64.64 17.128-17.161 40.379-26.79 64.639-26.79zM112.123 700.74c-11.064-11.063-18.988-24.655-23.226-39.406h179.293c8.076 0 15.848 3.2 21.548 8.929 5.729 5.699 8.928 13.471 8.928 21.547v179.291c-14.751-4.236-28.344-12.16-39.405-23.223l-147.139-147.139zM694.857 508.954c134.554 0 243.81-109.257 243.81-243.81s-109.257-243.81-243.81-243.81c-134.554 0-243.81 109.257-243.81 243.81s109.257 243.81 243.81 243.81zM847.236 249.907v45.713h-304.759v-45.713h304.759z" />
<glyph unicode="&#xe92b;" glyph-name="history" d="M499.319 199.885c0.013 42.176 11.456 83.571 33.122 119.825 21.666 36.258 52.757 66.035 89.997 86.204 37.244 20.169 79.266 29.978 121.638 28.403 42.377-1.579 83.541-14.485 119.164-37.367 0.252 17.382 0.388 35.934 0.388 55.949 0 102.918-3.52 167.152-10.475 233.685h0.99c-3.849 37.074-18.082 72.33-41.084 101.751-23.006 29.422-53.854 51.827-89.033 64.665-1.86 0.7-3.721 1.367-5.598 2-13.901 4.648-28.275 7.761-42.863 9.283l-1.391 0.15c-55.65 5.683-64.58 10.233-181.926 10.233s-136.332-4.55-191.93-10.317l-1.391-0.15c-15.313-1.6-30.388-4.955-44.925-10v0.75c-36.247-12.258-68.201-34.596-92.073-64.367s-38.662-65.724-42.616-103.6c-6.971-66.667-10.523-130.967-10.523-234.085 0-103.117 3.552-167.415 10.523-234.082 4.76-45.491 25.106-87.974 57.624-120.311 32.518-32.341 75.229-52.574 120.968-57.306l1.391-0.149c55.648-5.764 64.563-10.317 181.91-10.317 38.874 0 67.025 0.499 89.126 1.382-22.507 21.828-40.388 47.919-52.582 76.732-12.198 28.817-18.466 59.772-18.432 91.038zM303.269 652.75h365.813c10.586 0 20.74-4.183 28.224-11.628 7.488-7.445 11.691-17.543 11.691-28.072s-4.203-20.627-11.691-28.072c-7.484-7.445-17.638-11.628-28.224-11.628h-365.729c-10.586 0-20.738 4.183-28.224 11.628s-11.691 17.543-11.691 28.072c0 10.529 4.205 20.627 11.691 28.072s17.638 11.628 28.224 11.628h-0.084zM303.269 403.469c-10.447 0.209-20.393 4.489-27.705 11.913s-11.408 17.399-11.408 27.793c0 10.394 4.096 20.373 11.408 27.797 7.312 7.42 17.259 11.699 27.705 11.913h208.637c5.312 0.107 10.59-0.841 15.531-2.786 4.937-1.946 9.438-4.855 13.231-8.555 3.797-3.695 6.81-8.111 8.87-12.983 2.057-4.868 3.115-10.099 3.115-15.386 0-5.282-1.058-10.513-3.115-15.386-2.061-4.873-5.073-9.284-8.87-12.983-3.793-3.699-8.294-6.605-13.231-8.555-4.941-1.946-10.219-2.893-15.531-2.782h-208.637zM735.202 378.432c-35.503 0-70.208-10.47-99.729-30.089-29.521-19.622-52.531-47.505-66.116-80.132-13.589-32.627-17.143-68.527-10.219-103.159 6.929-34.637 24.026-66.453 49.131-91.422 25.105-24.973 57.092-41.975 91.913-48.866 34.825-6.891 70.916-3.354 103.718 10.159 32.802 13.517 60.838 36.403 80.563 65.762 19.725 29.363 30.255 63.885 30.255 99.2 0 47.351-18.914 92.766-52.578 126.251s-79.326 52.297-126.938 52.297zM806.353 173.751h-74.718c-5.666 0-11.102 2.236-15.108 6.221s-6.255 9.391-6.255 15.027v114.167c0 5.636 2.249 11.042 6.255 15.027s9.442 6.221 15.108 6.221c5.666 0 11.102-2.236 15.108-6.221s6.255-9.391 6.255-15.027v-92.915h53.355c5.666 0 11.102-2.24 15.108-6.225s6.255-9.391 6.255-15.027c0-5.636-2.249-11.042-6.255-15.027s-9.442-6.221-15.108-6.221z" />
<glyph unicode="&#xe92c;" glyph-name="home" d="M437.052 848.402c45.188 35.020 104.725 35.020 149.914 0l246.519-191.044c36.164-28.025 57.783-74.455 57.783-124.084v-361.591c0-83.034-59.43-150.349-132.74-150.349h-493.037c-73.311 0-132.741 67.315-132.741 150.349v361.591c0 49.629 21.622 96.060 57.784 124.084l246.517 191.044zM417.195 214.639c-10.473 0-18.963-9.617-18.963-21.478s8.49-21.478 18.963-21.478h189.628c10.475 0 18.965 9.617 18.965 21.478s-8.491 21.478-18.965 21.478h-189.628z" />
<glyph unicode="&#xe92d;" glyph-name="hourglass" d="M404.825 506.406c36.122-32.030 36.122-84.783 0-116.813l-4.936-4.373c-92.592-82.061-164.117-145.425-185.678-278.242-7.628-46.831 35.583-85.645 87.589-85.645h420.402c52.006 0 95.215 38.814 87.586 85.645-21.555 132.817-93.086 196.181-185.677 278.242l-4.932 4.373c-36.126 32.030-36.126 84.783 0 116.813l4.932 4.373c92.591 82.059 164.122 145.423 185.677 278.241 7.629 46.833-35.58 85.646-87.586 85.646h-420.402c-52.006 0-95.217-38.813-87.589-85.646 21.561-132.818 93.086-196.183 185.678-278.241l4.936-4.373zM436.211 578.839l-0.337 0.265c-70.559 58.589-123.059 102.203-129.902 210.073-0.426 6.636 2.67 12.593 7.718 16.541 3.926 3.089 9.064 4.948 14.673 4.948h367.248c6.622 0 12.591-2.594 16.695-6.735 3.836-3.854 6.059-9.052 5.696-14.755-6.844-107.87-59.341-151.485-129.877-210.073-18.671-15.495-38.592-32.041-59.255-51.1-9.31-8.589-24.452-8.589-33.762 0-20.553 18.949-40.363 35.418-58.897 50.834z" />
<glyph unicode="&#xe92e;" glyph-name="img-icon" d="M85.333 874.667h853.333v-853.333h-853.333v853.333z" />
<glyph unicode="&#xe92f;" glyph-name="info" d="M512 874.667c-234.667 0-426.667-192-426.667-426.667s192-426.667 426.667-426.667c234.667 0 426.667 192 426.667 426.667s-192 426.667-426.667 426.667zM512 712.533c29.867 0 51.2-25.6 51.2-51.2s-21.333-51.2-51.2-51.2-51.2 21.333-51.2 51.2 21.333 51.2 51.2 51.2zM563.2 183.467h-51.2c-29.867 0-51.2 25.6-51.2 51.2v162.133c-29.867 0-51.2 25.6-51.2 51.2 0 29.867 25.6 51.2 51.2 51.2h51.2c29.867 0 51.2-25.6 51.2-51.2v-162.133c29.867 0 51.2-25.6 51.2-51.2 4.267-29.867-21.333-51.2-51.2-51.2z" />
<glyph unicode="&#xe930;" glyph-name="info-1" d="M761.613 874.667h-361.968c-30.225 0-58.663-11.734-80-33.066l-137.239-137.246c-21.337-21.332-33.073-49.42-33.073-79.644v-490.31c0-62.221 50.851-113.067 113.072-113.067h499.207c62.221 0 113.054 50.846 113.054 113.067v627.554c0 62.222-50.833 112.713-113.054 112.713zM482.854 734.734c14.814 15.375 40.478 11.976 50.103 0 14.383-14.343 13.129-37.718 0-50.139-14.285-14.287-35.972-14.164-50.103 0-13.12 12.416-14.383 35.791 0 50.139zM472.371 582.939c0 19.635 15.902 35.555 35.554 35.555s35.554-15.92 35.554-35.555v-97.12c0-19.635-15.902-35.554-35.554-35.554s-35.554 15.919-35.554 35.554v97.12zM657.647 163.669h-299.443c-19.653 0-35.555 15.919-35.555 35.554s15.903 35.554 35.555 35.554h299.443c19.652 0 35.554-15.919 35.554-35.554s-15.902-35.554-35.554-35.554zM657.647 305.822h-299.443c-19.653 0-35.555 15.919-35.555 35.554s15.903 35.558 35.555 35.558h299.443c19.652 0 35.554-15.923 35.554-35.558s-15.902-35.554-35.554-35.554z" />
<glyph unicode="&#xe931;" glyph-name="introduce" d="M739.554 797.127h-189.628v38.769c0 10.283-3.998 20.144-11.11 27.415s-16.759 11.355-26.816 11.355c-10.057 0-19.703-4.084-26.816-11.355s-11.11-17.132-11.11-27.415v-38.769h-189.629c-30.176 0-59.116-12.254-80.453-34.066s-33.325-51.396-33.325-82.243v-310.16c0-30.844 11.987-60.429 33.325-82.24 21.338-21.815 50.277-34.069 80.453-34.069h61.061l-59.165-181.44c-1.905-4.949-2.794-10.249-2.611-15.565 0.183-5.312 1.434-10.534 3.675-15.334s5.425-9.075 9.352-12.565c3.927-3.49 8.515-6.114 13.478-7.714 4.029-0.529 8.108-0.529 12.137 0 8.27-0.439 16.454 1.899 23.303 6.66 6.848 4.757 11.984 11.682 14.623 19.703l65.233 206.255h172.944l67.127-206.255c2.543-7.697 7.39-14.387 13.858-19.119 6.464-4.732 14.221-7.262 22.17-7.245 4.113 0.107 8.192 0.759 12.139 1.941 4.907 1.417 9.489 3.827 13.461 7.095 3.977 3.268 7.266 7.322 9.677 11.917 2.406 4.595 3.883 9.643 4.339 14.835 0.452 5.193-0.119 10.428-1.69 15.39l-61.060 181.44h61.060c30.178 0 59.119 12.254 80.457 34.069 21.333 21.811 33.323 51.396 33.323 82.24v310.16c0 30.847-11.989 60.431-33.323 82.243-21.338 21.812-50.278 34.066-80.457 34.066zM360.296 642.048h151.704c10.057 0 19.703-4.084 26.816-11.355s11.11-17.132 11.11-27.414c0-10.283-3.998-20.144-11.11-27.415s-16.759-11.355-26.816-11.355h-151.704c-10.058 0-19.705 4.084-26.817 11.355s-11.108 17.132-11.108 27.415c0 10.282 3.996 20.143 11.108 27.414s16.759 11.355 26.817 11.355zM663.706 409.429h-303.409c-10.058 0-19.705 4.083-26.817 11.354-7.113 7.275-11.108 17.135-11.108 27.418s3.996 20.143 11.108 27.413c7.112 7.27 16.759 11.354 26.817 11.354h303.409c10.057 0 19.703-4.083 26.816-11.354s11.106-17.131 11.106-27.413c0-10.283-3.994-20.143-11.106-27.418-7.113-7.27-16.759-11.354-26.816-11.354z" />
<glyph unicode="&#xe932;" glyph-name="jackpot" d="M938.667 511.979v-126.106c0-15.539-13.167-28.126-29.427-28.126h-40.806v182.354h11.567c0 222.86-0.111 208.446 0.201 210.337-17.122 5.713-29.389 21.287-29.389 39.603 0 23.185 19.644 41.958 43.9 41.958 24.239 0 43.9-18.773 43.9-41.958 0-18.316-12.284-33.89-29.389-39.603 0.316-1.891 0.205 12.491 0.205-210.337 16.162-0.088 29.239-12.639 29.239-28.123zM85.333 274.389v-30.562c0-15.531 13.175-28.122 29.425-28.122h694.816c16.252 0 29.427 12.591 29.427 28.122v30.562h-753.668zM346.128 595.328v-292.813h232.078v292.813h-232.078zM455.949 358.746c-2.022-7.488-10.014-12.045-17.924-10.099-7.863 1.941-12.597 9.613-10.564 17.131 12.71 47.040 32.563 91.302 59.179 132.028-28.062 1.83-37.807 19.853-78.1 5.278-7.593-2.748-16.090 0.909-18.967 8.175-2.874 7.262 0.954 15.381 8.554 18.125 36.233 13.103 56.914 6.23 73.524 0.708 14.212-4.727 22.788-7.578 41.954 3.076 6.046 3.351 13.717 2.185 18.368-2.79 4.651-4.979 5.001-12.399 0.836-17.758-35.874-46.144-61.739-97.916-76.86-153.873zM85.333 595.328v-292.813h231.369v292.813h-231.369zM201.238 358.746c-2.023-7.488-10.016-12.045-17.926-10.099-7.866 1.941-12.598 9.613-10.566 17.131 12.712 47.040 32.564 91.302 59.18 132.028-28.063 1.83-37.806 19.853-78.1 5.278-7.593-2.748-16.092 0.909-18.966 8.175-2.874 7.262 0.954 15.381 8.553 18.125 36.236 13.103 56.912 6.23 73.524 0.708 14.213-4.727 22.788-7.578 41.955 3.076 6.043 3.351 13.716 2.185 18.365-2.79 4.653-4.979 5.004-12.399 0.837-17.758-35.875-46.144-61.736-97.916-76.857-153.873zM839.002 623.453v30.563c0 15.534-13.175 28.125-29.427 28.125h-694.816c-16.25 0-29.425-12.591-29.425-28.125v-30.563h753.668zM839.002 595.328h-231.369v-292.813h231.369v292.813zM706.987 358.746c-2.027-7.488-10.018-12.045-17.929-10.099-7.863 1.941-12.595 9.613-10.564 17.131 12.71 47.040 32.563 91.302 59.179 132.028-28.062 1.83-37.807 19.853-78.101 5.278-7.595-2.748-16.090 0.909-18.965 8.175-2.871 7.262 0.956 15.381 8.555 18.125 36.233 13.103 56.913 6.23 73.523 0.708 14.212-4.727 22.788-7.578 41.954 3.076 6.046 3.351 13.717 2.185 18.368-2.79 4.651-4.979 5.005-12.399 0.836-17.758-35.874-46.144-61.734-97.916-76.855-153.873z" />
<glyph unicode="&#xe933;" glyph-name="lock-key" d="M738.598 543.517v105.989c0 124.107-101.542 225.161-226.594 225.161-124.897 0-226.595-101.054-226.595-225.161v-105.989c-52.279-4.342-93.41-48.208-93.41-101.2v-126.357c0-162.432 132.881-294.626 296.346-294.626h47.309c163.465 0 296.346 132.194 296.346 294.626v126.357c0 52.996-41.122 96.859-93.402 101.2zM383.491 649.505c7.043 169.206 249.985 169.168 257.025 0v-105.548h-257.025v105.548zM476.147 270.891c-52.881 34.283-27.081 118.080 35.857 117.521 62.942 0.525 88.777-83.2 35.861-117.521-4.070-2.697-6.63-7.488-6.63-12.429v-52.548c-0.981-38.251-57.438-38.323-58.458 0v52.548c0 4.941-2.56 9.732-6.63 12.429z" />
<glyph unicode="&#xe934;" glyph-name="lo-de" d="M597.333 505.237c0 22.63-8.99 44.335-24.994 60.338s-37.709 24.993-60.339 24.993c-22.63 0-44.335-8.99-60.339-24.993s-24.994-37.708-24.994-60.338c0.124-21.052 8.026-41.314 22.187-56.892-14.161-15.578-22.063-35.836-22.187-56.887 0-22.63 8.99-44.339 24.994-60.339 16.004-16.004 37.709-24.994 60.339-24.994s44.335 8.99 60.339 24.994c16.004 16 24.994 37.709 24.994 60.339-0.124 21.052-8.026 41.31-22.187 56.887 14.161 15.578 22.063 35.84 22.187 56.892zM512 363.012c-5.628 0-11.123 1.668-15.804 4.796-4.676 3.123-8.324 7.565-10.475 12.766-2.155 5.197-2.718 10.914-1.621 16.431 1.101 5.521 3.81 10.59 7.787 14.566s9.045 6.686 14.562 7.782c5.521 1.101 11.238 0.538 16.435-1.617s9.643-5.798 12.766-10.475c3.127-4.681 4.796-10.18 4.796-15.804 0-7.543-2.999-14.78-8.333-20.113s-12.57-8.333-20.113-8.333zM512 476.791c-5.628 0-11.123 1.668-15.804 4.791-4.676 3.127-8.324 7.569-10.475 12.766-2.155 5.197-2.718 10.918-1.621 16.435 1.101 5.517 3.81 10.586 7.787 14.566 3.977 3.977 9.045 6.686 14.562 7.782 5.521 1.098 11.238 0.535 16.435-1.617 5.197-2.155 9.643-5.798 12.766-10.479 3.127-4.676 4.796-10.176 4.796-15.799 0-7.548-2.999-14.78-8.333-20.117-5.333-5.333-12.57-8.329-20.113-8.329zM816.64 746.729c-59.311 60.485-135.287 101.946-218.244 119.099s-169.143 9.224-247.581-22.779c-78.435-32.003-145.569-86.63-192.849-156.922s-72.564-153.067-72.633-237.781c-0.057-70.003 17.112-138.944 49.992-200.747s80.461-114.564 138.548-153.634c58.087-39.070 124.894-63.245 194.531-70.4 69.636-7.151 139.964 2.94 204.783 29.385 64.815 26.449 122.129 68.433 166.886 122.261 44.753 53.828 75.58 117.841 89.754 186.394 14.178 68.553 11.268 139.541-8.474 206.704-19.738 67.163-55.701 128.437-104.713 178.42zM664.461 299.012c-34.62-35.413-80.469-57.694-129.707-63.036s-98.799 6.592-140.21 33.758c-41.411 27.166-72.095 67.874-86.805 115.162-14.711 47.292-12.532 98.223 6.161 144.085s52.742 83.803 96.32 107.334c43.578 23.53 93.98 31.188 142.581 21.663 48.597-9.525 92.378-35.641 123.853-73.88 31.471-38.24 48.678-86.225 48.678-135.752 0.154-55.846-21.722-109.504-60.873-149.333z" />
<glyph unicode="&#xe935;" glyph-name="logout" d="M474.842 175.245h-179.67c-43.834 0-79.502 35.405-79.502 79.279v387.425c0 43.712 35.501 79.279 79.502 79.279h179.67c36.002 0 65.169 29.086 65.169 64.986s-29.167 64.986-65.169 64.986h-179.67c-115.836-0.166-209.839-93.739-209.839-209.251v-387.425c0-115.511 93.836-209.25 209.839-209.25h179.67c36.002 0 65.169 29.086 65.169 64.986s-29.167 64.986-65.169 64.986zM919.522 493.862l-160.674 160.385c-25.498 25.429-66.667 25.429-92.169 0-25.498-25.429-25.498-66.482 0-91.911l51.669-51.523h-283.674c-36.001-0.499-64.668-30.084-64.168-65.984 0.5-35.068 29.001-63.326 64.168-63.987h279.505l-46.997-46.869c-25.502-25.429-25.502-66.483 0-91.913 25.498-25.429 66.667-25.429 92.169 0l160.337 159.889c25.331 25.429 25.331 66.483-0.166 91.913 0.166 0 0.166 0 0 0z" />
<glyph unicode="&#xe936;" glyph-name="menu" d="M755.81 631.162h-487.62c-16.166 0-31.669 6.422-43.1 17.853s-17.853 26.934-17.853 43.1c0 16.166 6.422 31.669 17.853 43.1s26.934 17.853 43.1 17.853h487.62c16.166 0 31.667-6.422 43.098-17.853s17.856-26.934 17.856-43.1c0-16.166-6.426-31.669-17.856-43.1s-26.931-17.853-43.098-17.853zM938.667 448.303c0 16.166-6.421 31.671-17.852 43.102s-26.935 17.852-43.102 17.852h-731.427c-16.166 0-31.669-6.421-43.1-17.852s-17.853-26.935-17.853-43.102c0-16.162 6.422-31.667 17.853-43.098s26.934-17.852 43.1-17.852h731.427c16.166 0 31.671 6.421 43.102 17.852s17.852 26.935 17.852 43.098zM816.764 204.497c0 16.162-6.426 31.667-17.856 43.098s-26.931 17.852-43.098 17.852h-487.62c-16.166 0-31.669-6.421-43.1-17.852s-17.853-26.935-17.853-43.098c0-16.166 6.422-31.671 17.853-43.102s26.934-17.852 43.1-17.852h487.62c16.166 0 31.667 6.421 43.098 17.852s17.856 26.935 17.856 43.102z" />
<glyph unicode="&#xe937;" glyph-name="mess" d="M512.004 850.959c236.314 0 426.662-172.663 426.662-383.302 0-210.641-190.349-383.305-426.662-383.305-55.484 0-108.51 9.557-157.090 26.854l-127.283-63.061c-9.884-4.873-21.67-3.968-30.679 2.441-8.97 6.366-13.614 17.178-12.106 28.028l17.702 125.214c-72.792 68.873-117.204 161.809-117.204 263.829 0 210.639 190.351 383.302 426.661 383.302zM328.879 342.955l102.597 79.057c12.702 9.788 30.123 11.008 44.058 3.106l83.703-47.373c18.099-10.257 41.118-4.873 52.706 12.343l110.972 164.841c3.017 4.56 2.543 10.536-1.148 14.546-3.733 4.010-9.766 4.953-14.566 2.32l-114.505-63.017c-12.979-7.155-28.937-6.485-41.28 1.651l-65.37 43.165c-8.849 5.857-19.686 7.941-30.123 5.78-10.398-2.163-19.529-8.375-25.284-17.219l-119.067-183.512c-3.135-4.838-2.302-11.204 1.984-15.1 4.249-3.853 10.758-4.126 15.322-0.589z" />
<glyph unicode="&#xe938;" glyph-name="minus-fill" d="M867.554 874.667h-711.11c-18.86 0-36.947-7.492-50.283-20.828s-20.828-31.423-20.828-50.283v-711.11c0-18.863 7.492-36.949 20.828-50.283 13.336-13.338 31.423-20.83 50.283-20.83h711.11c18.863 0 36.949 7.492 50.283 20.83 13.338 13.333 20.83 31.42 20.83 50.283v711.11c0 18.86-7.492 36.947-20.83 50.283-13.333 13.336-31.42 20.828-50.283 20.828zM760.887 412.446h-497.776c-9.43 0-18.474 3.746-25.142 10.411-6.668 6.669-10.414 15.714-10.414 25.143s3.746 18.475 10.414 25.143c6.668 6.665 15.712 10.411 25.142 10.411h497.776c9.429 0 18.475-3.746 25.143-10.411 6.669-6.669 10.415-15.714 10.415-25.143s-3.746-18.475-10.415-25.143c-6.669-6.665-15.714-10.411-25.143-10.411z" />
<glyph unicode="&#xe939;" glyph-name="momo" d="M756.698 487.45c100.617 0 181.969 81.051 181.969 181.297s-81.353 181.296-181.969 181.296c-100.621 0-181.973-81.050-181.973-181.296s81.353-181.297 181.973-181.297zM756.698 745.958c42.816 0 77.495-34.553 77.495-77.211s-34.679-77.211-77.495-77.211c-42.816 0-77.5 34.553-77.5 77.211s34.684 77.211 77.5 77.211zM756.698 408.96c-100.621 0-181.973-81.050-181.973-181.295 0-100.25 81.353-181.299 181.973-181.299 100.617 0 181.969 81.050 181.969 181.299 0 100.245-81.353 181.295-181.969 181.295zM756.698 150.451c-42.816 0-77.5 34.556-77.5 77.214s34.684 77.21 77.5 77.21c42.816 0 77.495-34.551 77.495-77.21s-34.679-77.214-77.495-77.214zM385.905 408.96c-30.828 0-59.087-10.24-81.779-27.302-22.693 17.062-51.38 27.302-81.78 27.302-75.357 0-136.585-61.001-136.585-136.081v-226.94h104.472v228.22c0 17.067 13.702 30.716 30.828 30.716s30.828-13.649 30.828-30.716v-227.793h104.472v227.793c0 17.067 13.701 30.716 30.828 30.716s30.828-13.649 30.828-30.716v-227.793h104.043v226.94c0 74.654-60.8 135.654-136.156 135.654zM385.905 850.043c-30.828 0-59.087-10.238-81.78-27.301-22.693 17.063-51.38 27.301-81.779 27.301-75.785 0-137.013-61.001-137.013-136.079v-226.514h104.472v227.794c0 17.063 13.701 30.714 30.828 30.714s30.828-13.651 30.828-30.714v-227.794h104.472v227.794c0 17.063 13.702 30.714 30.828 30.714s30.828-13.651 30.828-30.714v-227.794h104.471v226.514c0 75.078-60.8 136.079-136.156 136.079z" />
<glyph unicode="&#xe93a;" glyph-name="news" d="M416.45 242.3c22.965-56.073 54.987-106.923 95.55-151.65 40.563 44.727 72.585 95.578 95.548 151.65h-191.098zM449.591 810.667c-43.46-8.253-85.12-25.098-122.803-49.901-41.955-27.615-77.727-64.175-105.168-107.067h140.8c20.933 57.229 50.135 109.798 87.171 156.968zM574.409 85.333c43.46 8.252 85.12 25.097 122.803 49.903 41.954 27.614 77.726 64.175 105.169 107.063h-140.8c-20.932-57.229-50.138-109.794-87.172-156.966zM802.381 653.699c-27.443 42.892-63.215 79.452-105.169 107.067-37.683 24.803-79.343 41.647-122.803 49.9 37.035-47.17 66.24-99.739 87.172-156.968l140.8 0.002zM607.552 653.699c-22.967 56.072-54.989 106.927-95.552 151.654-40.567-44.729-72.585-95.581-95.55-151.654h191.102zM221.62 242.3c27.441-42.889 63.213-79.45 105.168-107.063 37.683-24.806 79.343-41.647 122.803-49.903-37.036 47.172-66.238 99.742-87.171 156.971l-140.8-0.004zM230.667 601.045c-80.265 0-145.333-68.523-145.333-153.045s65.068-153.045 145.333-153.045h562.665c80.269 0 145.335 68.523 145.335 153.045s-65.067 153.045-145.335 153.045h-562.665zM347.612 359.002h-36.185l-66.636 111.68v-114.044h-38.37v193.66l36.185-0.007 66.637-111.678v111.969h38.37v-191.581zM469.739 509.474h-60.872v-35.661h56.384v-40.405h-56.384v-35.661h60.872v-40.405h-99.244v192.541h99.244v-40.408zM650.539 357.948l-36.386-0.26-29.858 109.052-29.879-108.8-36.412-0.26-35.209 187.447 37.641 7.84 19.332-102.914 26.935 98.073 35.255-0.047 26.859-98.090 19.409 102.713 37.632-7.887-35.319-186.866zM816.832 406.566c-4.902-28.932-31.104-49.929-62.293-49.929-25.25 0-48.947 10.714-65.024 29.397l28.429 27.132c8.691-10.095 22.37-16.119 36.595-16.119 13.585 0 23.138 8.452 24.521 16.623 1.86 10.957-13.692 17.907-18.505 19.776-22.639 8.794-42.748 18.219-43.593 18.615l-1.387 0.653-1.276 0.875c-15.689 10.773-23.774 29.662-21.094 49.301 2.846 20.902 17.344 37.923 37.833 44.424 40.329 12.793 73.502-16.021 74.897-17.25l-24.691-30.933 0.115-0.102c-0.188 0.162-19.025 16.009-39.249 9.596-8.832-2.803-10.581-8.96-10.927-11.477-0.235-1.754-0.358-5.939 3.127-8.977 5.248-2.415 21.781-9.92 39.522-16.811 37.346-14.511 46.699-42.982 42.999-64.794z" />
<glyph unicode="&#xe93b;" glyph-name="nha-cai" d="M208.498 148.48c0.569-0.713 1.137-1.421 1.849-2.133 0.569-0.567 1.28-1.139 1.991-1.566 0 0 0.142-0.282 0.284-0.282 76.516-75.52 181.049-122.313 296.532-122.88 0.427-0.145 0.853-0.145 1.425-0.145 0.427-0.141 0.994-0.141 1.421-0.141s0.994 0 1.421 0.141c0.572 0 0.998 0 1.425 0.145 116.053 0.567 221.154 47.927 297.668 123.874 0.427 0.286 0.713 0.567 0.998 0.853 0.708 0.713 1.28 1.421 1.847 2.133 76.373 77.086 123.307 182.899 123.307 299.52v0.141c0 116.624-47.074 222.437-123.307 299.379-0.567 0.711-1.139 1.422-1.847 1.991-0.145 0.284-0.427 0.569-0.713 0.711 0 0.095-0.047 0.143-0.141 0.143-77.086 76.8-183.467 124.302-300.659 124.302s-222.293-46.933-299.378-123.022c0 0 0-0.143-0.142-0.143-0.711-0.569-1.422-1.137-2.133-1.849s-1.28-1.422-1.849-2.133c0-0.142-0.143-0.142-0.143-0.142-76.089-76.943-123.022-182.756-123.022-299.237v-0.141c0-116.621 46.933-222.293 123.022-299.379 0 0 0.143 0 0.143-0.141zM526.221 50.347v98.133c70.118 3.127 135.825 30.293 187.593 77.367l69.261-69.12c-67.84-63.287-157.867-103.108-256.853-106.381zM803.273 719.218c63.287-67.84 103.108-157.867 106.522-256.852h-98.415c-3.132 70.114-30.293 135.821-77.372 187.59l69.265 69.263zM497.779 845.938v-98.276c-69.973-3.271-135.681-30.435-187.735-77.653l-69.263 69.263c67.84 63.289 157.867 103.253 256.997 106.667zM319.858 640c51.2 50.915 118.896 79.075 190.721 79.502h0.282c0.427-0.142 0.713-0.142 1.139-0.142s0.713 0 1.139 0.142h0.282c71.68-0.427 139.093-28.302 189.867-78.791l0.145-0.143c0.141-0.142 0.427-0.427 0.567-0.569s0.427-0.427 0.427-0.569c50.914-51.058 78.933-119.039 78.933-191.29 0-72.247-28.16-140.8-79.36-192.141l-0.141-0.141c-50.918-50.773-118.473-78.933-190.438-79.36h-0.282c-0.427 0.141-0.713 0.141-1.139 0.141s-0.713 0-1.139-0.141h-0.282c-71.825 0.427-139.521 28.587-190.721 79.501-51.2 51.341-79.36 119.607-79.36 192.141s28.16 140.659 79.36 191.859zM212.48 433.92c3.129-70.114 30.293-135.821 77.511-187.874l-69.263-69.265c-63.289 67.84-103.253 157.867-106.524 257.139h98.275zM448.141 329.527c12.518 0 25.033 2.133 36.838 6.545l-23.753-64.853c-1.566-4.412-0.994-9.246 1.707-13.086 2.701-3.699 6.967-5.973 11.661-5.973h74.812c4.693 0 9.101 2.274 11.661 5.973 2.701 3.84 3.273 8.674 1.707 13.086l-23.753 64.853c37.833-13.939 82.065-5.692 112.073 24.461 40.819 40.674 41.387 107.52 1.139 149.047l-130.133 130.135c-5.406 5.405-14.793 5.405-20.198 0l-129.99-130.135c-0.095 0-0.19-0.047-0.285-0.141-19.2-19.913-29.867-46.221-29.867-73.813 0.142-28.446 11.093-55.181 31.147-75.093 20.622-20.621 47.929-31.006 75.234-31.006z" />
<glyph unicode="&#xe93c;" glyph-name="p2p" d="M370.304 515.311c28.735 42.34-20.797 97.589-54.65 120.262-22.328-21.411-52.253-33.404-83.418-33.431s-61.111 11.914-83.477 33.286c-33.849-22.307-83.607-77.839-54.794-120.116 4.606-6.31 10.666-11.452 17.682-15.010 7.016-3.554 14.788-5.419 22.679-5.444h195.617c7.89 0.026 15.663 1.89 22.678 5.444 7.016 3.558 13.076 8.7 17.682 15.010zM321.696 719.13c-3.709 116.513-175.757 116.632-179.119 0.002 3.282-116.338 175.446-116.87 179.119-0.002zM875.401 229.385c-22.327-21.41-52.254-33.404-83.418-33.429s-61.111 11.913-83.477 33.284c-33.852-22.306-83.61-77.837-54.797-120.115 4.608-6.31 10.667-11.452 17.685-15.006 7.014-3.558 14.788-5.423 22.677-5.449h195.618c7.889 0.026 15.659 1.89 22.677 5.449 7.014 3.554 13.073 8.695 17.681 15.006 28.736 42.338-20.796 97.587-54.647 120.26zM881.442 312.943c-3.712 116.514-175.757 116.634-179.119 0 3.281-116.335 175.445-116.868 179.119 0zM365.065 748.712c113.135 54.585 235.93 37.801 341.218-24.363 3.14 0.059 6.178 1.098 8.683 2.968 2.5 1.87 4.335 4.474 5.235 7.436s0.823 6.13-0.218 9.047c-1.045 2.917-3.004 5.431-5.594 7.181-53.137 34.412-114.415 54.694-177.873 58.875s-126.932-7.883-184.253-35.017c-3.438-1.719-6.055-4.696-7.289-8.294s-0.986-7.528 0.689-10.947c1.676-3.42 4.646-6.057 8.273-7.344s7.623-1.123 11.128 0.458zM252.902 246.793l-1.030-12.476c-51.013 59.849-78.877 135.543-78.661 213.683 0.415 1.916 0.434 3.895 0.055 5.82s-1.146 3.75-2.258 5.376c-1.111 1.626-2.544 3.017-4.212 4.083s-3.538 1.796-5.497 2.133c-1.959 0.341-3.968 0.29-5.908-0.149s-3.768-1.259-5.378-2.411c-1.61-1.152-2.968-2.611-3.994-4.288-1.025-1.681-1.696-3.546-1.974-5.487-1.798-85.611 27.685-169.007 83.078-235.008l-14.14 2.031c-3.843 0.448-7.71-0.606-10.775-2.931-3.064-2.33-5.082-5.743-5.621-9.515-0.539-3.776 0.443-7.607 2.736-10.675s5.716-5.133 9.534-5.747l52.587-7.108c1.972-0.277 3.982-0.158 5.905 0.358 1.923 0.512 3.719 1.408 5.278 2.633s2.847 2.748 3.787 4.476c0.939 1.732 1.509 3.635 1.675 5.589l4.125 47.147c0.263 3.789-0.997 7.531-3.508 10.415-2.511 2.889-6.073 4.685-9.917 5.009s-7.664-0.853-10.636-3.277c-2.972-2.423-4.858-5.901-5.252-9.681zM600.363 125.879c-46.276-12.305-94.677-14.797-142.003-7.317-47.329 7.479-92.506 24.764-132.55 50.709-1.617 1.045-3.427 1.766-5.328 2.125s-3.854 0.341-5.749-0.043c-1.895-0.384-3.694-1.135-5.294-2.206s-2.971-2.441-4.034-4.036c-1.063-1.591-1.796-3.375-2.159-5.244-0.363-1.873-0.348-3.797 0.044-5.662 0.392-1.869 1.153-3.639 2.241-5.214 1.087-1.579 2.479-2.927 4.096-3.977 43.529-28.198 92.64-46.98 144.086-55.108 51.447-8.124 104.060-5.406 154.359 7.979 1.865 0.499 3.614 1.353 5.146 2.517 1.527 1.165 2.812 2.615 3.772 4.267 0.964 1.651 1.587 3.473 1.83 5.363 0.247 1.89 0.115 3.806-0.393 5.645s-1.374 3.558-2.556 5.069c-1.182 1.506-2.654 2.769-4.331 3.716-1.681 0.947-3.529 1.562-5.449 1.805-1.92 0.239-3.866 0.111-5.73-0.388zM754.615 636.877c3.597-0.007 7.070 1.29 9.762 3.645 2.688 2.354 4.403 5.601 4.817 9.121l1.771 13.491c51.772-60.061 80.085-136.346 79.838-215.134 1.114-13.675-7.33-36.582 12.813-39.023 20.804-0.154 15.71 25.024 16.644 39.023 0.307 85.78-30.575 168.835-87.053 234.138l15.906-1.886c1.92-0.252 3.87-0.123 5.739 0.378 1.865 0.501 3.614 1.365 5.137 2.541s2.79 2.64 3.733 4.306c0.939 1.666 1.532 3.5 1.745 5.395 0.243 1.896 0.102 3.82-0.41 5.663s-1.391 3.568-2.581 5.077c-1.19 1.509-2.671 2.772-4.356 3.717s-3.546 1.553-5.47 1.79l-50.082 6.093c-3.866 0.452-7.757-0.622-10.82-2.987s-5.052-5.83-5.53-9.635l-6.187-49.467c-0.239-2.031-0.038-4.090 0.585-6.040s1.655-3.751 3.029-5.283c1.374-1.532 3.063-2.762 4.954-3.61s3.938-1.296 6.016-1.313z" />
<glyph unicode="&#xe93d;" glyph-name="phone" d="M923.093 124.070c-5.67-5.645-12.501-12.868-19.746-20.51-18.082-19.187-40.67-43.042-54.827-52.715-74.483-50.897-174.131-26.543-244.617 2.825-92.979 38.741-194.214 110.153-285.11 201.058-90.981 90.914-162.385 192.179-201.126 285.108-29.334 70.501-53.739 170.168-2.833 244.669 9.667 14.167 33.575 36.719 52.739 54.833 7.667 7.223 14.833 14.049 20.5 19.697 10.060 10.010 23.675 15.63 37.868 15.63s27.808-5.62 37.868-15.63l137.048-137.008c10.005-10.060 15.621-23.671 15.621-37.859s-5.616-27.799-15.621-37.859l-37.334-37.259c-12.468-12.377-20.606-28.449-23.204-45.824s0.485-35.124 8.789-50.608c51.35-96.917 130.623-176.179 227.553-227.511 15.475-8.303 33.225-11.379 50.594-8.777 17.37 2.598 33.434 10.743 45.803 23.215l37.239 37.261c10.061 10.010 23.676 15.629 37.871 15.629 14.191 0 27.806-5.619 37.867-15.629l137.058-137.033c10.001-10.057 15.62-23.663 15.62-37.85s-5.619-27.797-15.62-37.854z" />
<glyph unicode="&#xe93e;" glyph-name="piggy-bank" d="M353.619 444.979c124.576 0 225.62 96.176 225.62 214.754s-101.043 214.933-225.62 214.933c-124.576 0-225.619-96.178-225.619-214.755s101.043-214.932 225.619-214.932zM274.801 574.933c2.054 7.111 4.109 14.045 6.35 21.155 2.615 8.178 5.043 9.067 12.887 5.156 13.447-6.578 27.642-10.311 42.583-12.089 9.525-1.067 19.051-0.177 27.829 3.556 16.623 6.933 19.237 25.244 5.23 36.267-4.856 3.733-10.272 6.577-15.875 8.889-14.568 6.045-29.697 10.667-43.518 18.489-22.225 12.623-36.42 30.223-34.739 56 1.868 29.156 19.238 47.467 47.253 57.067 11.58 4.089 11.58 3.911 11.767 15.467 0 3.911 0 7.823 0 11.733 0.187 8.711 1.868 10.133 10.833 10.489 2.801 0 5.603 0 8.405 0 19.424 0 19.424 0 19.424-18.489 0-12.977 0-13.155 13.634-15.111 10.459-1.6 20.358-4.445 30.070-8.533 5.416-2.311 7.284-5.867 5.79-11.2-2.428-8-4.669-16-7.471-23.823-2.615-7.467-5.043-8.533-12.514-5.155-15.128 6.933-31.004 9.955-47.813 9.067-4.483-0.178-8.591-0.711-12.701-2.489-14.381-6.045-16.809-21.156-4.482-30.578 6.163-4.8 13.26-8.178 20.731-11.022 12.701-4.978 25.588-9.956 37.914-16.356 38.662-20.444 49.119-66.667 21.852-98.133-9.899-11.377-22.599-19.022-37.728-22.933-6.537-1.777-9.525-4.977-9.152-11.377s0-12.624 0-19.024c0-5.687-2.988-8.708-8.965-8.887-7.098-0.179-14.382-0.179-21.479 0-6.35 0.179-9.338 3.554-9.338 9.421 0 4.625 0 9.246-0.187 13.868-0.186 10.133-0.373 10.667-10.833 12.267-13.261 1.956-26.148 4.8-38.288 10.489-9.152 4.089-10.086 6.4-7.471 15.822zM859.767 427.021h-26.334c-17.37 50.667-51.362 95.646-96.751 130.49 0 1.6-0.371 3.377-0.747 4.977-9.523 31.823 2.244 60.8 15.876 81.6 9.527 14.578-2.799 33.245-20.732 31.111-40.154-4.8-67.797-18.845-86.848-34.667-13.073-10.845-22.413-25.422-26.522-41.6-28.762-113.421-136.154-197.867-264.092-197.867-62.195 0-119.346 19.913-165.105 53.333-15.875-32.713-24.467-68.446-24.467-105.954 0-20.267 2.615-40 7.471-59.025 0 0 0-0.354 0.187-0.887 5.043-19.733 12.7-38.754 22.412-56.713 12.887-26.487 31.564-57.421 57.338-82.487 37.167-36.446 43.517-81.6 44.451-101.154v-8.358c0-0.354 0-0.708 0-1.067 0-0.175 0-0.175 0-0.175 0.747-9.6 9.152-17.246 19.424-17.246h118.039c10.645 0 19.426 8.179 19.426 18.487v27.733c17.182-2.133 34.739-3.375 52.48-3.375 14.007 0 27.644 0.708 41.276 2.133v-26.492c0-10.133 8.593-18.487 19.426-18.487h118.413c10.645 0 19.422 8.179 19.422 18.487v27.733c0.188 9.246 3.55 46.046 40.158 77.513 1.306 1.067 2.615 2.133 3.921 3.2 0.375 0.354 0.747 0.533 1.122 0.887 40.713 34.492 70.784 77.513 86.285 125.513h24.841c19.797 0 35.861 15.287 35.861 34.133v84.087c-0.375 18.846-16.435 34.133-36.233 34.133zM712.030 420.979c-16.247 0-29.321 12.442-29.321 27.908s13.073 27.913 29.321 27.913c16.252 0 29.325-12.446 29.325-27.913s-13.073-27.908-29.325-27.908z" />
<glyph unicode="&#xe93f;" glyph-name="play" d="M512 874.667c-235.279 0-426.667-191.407-426.667-426.667s191.388-426.667 426.667-426.667c235.277 0 426.667 191.407 426.667 426.667s-191.39 426.667-426.667 426.667zM681.617 433.050l-248.887-160c-2.914-1.89-6.285-2.829-9.618-2.829-2.917 0-5.868 0.73-8.507 2.172-5.73 3.123-9.271 9.097-9.271 15.607v320c0 6.51 3.542 12.483 9.271 15.608 5.625 3.090 12.672 2.9 18.125-0.66l248.887-159.998c5.073-3.264 8.162-8.909 8.162-14.95s-3.089-11.682-8.162-14.95z" />
<glyph unicode="&#xe940;" glyph-name="plus" d="M565.333 821.333c0 29.455-23.876 53.333-53.333 53.333s-53.333-23.878-53.333-53.333v-320h-320c-29.455 0-53.333-23.876-53.333-53.333s23.878-53.333 53.333-53.333h320v-320c0-29.457 23.876-53.333 53.333-53.333s53.333 23.876 53.333 53.333v320h320c29.457 0 53.333 23.876 53.333 53.333s-23.876 53.333-53.333 53.333h-320v320z" />
<glyph unicode="&#xe941;" glyph-name="plus-fill" d="M867.554 874.667h-711.11c-18.86 0-36.947-7.492-50.283-20.828s-20.828-31.423-20.828-50.283v-711.11c0-18.863 7.492-36.949 20.828-50.283 13.336-13.338 31.423-20.83 50.283-20.83h711.11c18.863 0 36.949 7.492 50.283 20.83 13.338 13.333 20.83 31.42 20.83 50.283v711.11c0 18.86-7.492 36.947-20.83 50.283-13.333 13.336-31.42 20.828-50.283 20.828zM760.887 412.446h-213.333v-213.333c0-9.429-3.746-18.475-10.411-25.143-6.669-6.669-15.714-10.415-25.143-10.415s-18.475 3.746-25.143 10.415c-6.665 6.669-10.411 15.714-10.411 25.143v213.333h-213.335c-9.43 0-18.474 3.746-25.142 10.411-6.668 6.669-10.414 15.714-10.414 25.143s3.746 18.475 10.414 25.143c6.668 6.665 15.712 10.411 25.142 10.411h213.335v213.335c0 9.43 3.746 18.474 10.411 25.142 6.669 6.668 15.714 10.414 25.143 10.414s18.475-3.746 25.143-10.414c6.665-6.668 10.411-15.712 10.411-25.142v-213.335h213.333c9.429 0 18.475-3.746 25.143-10.411 6.669-6.669 10.415-15.714 10.415-25.143s-3.746-18.475-10.415-25.143c-6.669-6.665-15.714-10.411-25.143-10.411z" />
<glyph unicode="&#xe942;" glyph-name="private" d="M894.925 707.876c-1.498 16.294-12.16 30.336-27.477 36.085l-335.817 126.017c-3.827 1.916-7.915 3.205-12.16 3.914-9.242 1.873-18.94 0.29-27.439-4.123l-335.27-125.808c-15.322-5.749-25.983-19.791-27.476-36.085-0.457-4.96-40.135-495.81 358.799-679.541 0.418-0.29 0.875-0.585 1.331-0.832 6.746-4.126 14.4-6.17 22.067-6.17 1.165 0 2.33 0.043 3.499 0.124 6.908 0.457 13.781 2.581 19.9 6.293 400.265 183.275 360.503 675.124 360.043 680.126zM713.664 546.649l-182.635-190.971c-7.94-8.29-18.88-13.047-30.362-13.171-0.166 0-0.311 0-0.478 0-11.315 0-22.174 4.506-30.174 12.506l-85.358 85.359c-16.67 16.67-16.67 43.678 0 60.352s43.677 16.67 60.351 0l54.498-54.515 152.482 159.461c16.273 17.046 43.366 17.631 60.331 1.332 17.033-16.299 17.638-43.306 1.344-60.352z" />
<glyph unicode="&#xe943;" glyph-name="promo" d="M686.319 839.324c22.519 15.069 50.432 11.512 64.405-0.641 6.054-5.276 11.968-14.26 5.734-27.138-13.099-27.172-40.994-44.719-71.031-44.719h-85.999c4.045-10.45 6.285-21.795 6.285-33.661 0-10.569-1.783-20.733-5.022-30.223h202.253c13.487 25.621 14.464 55.034 2.445 81.987l-24.644 55.321c-2.88 6.406-7.296 12.372-13.299 17.598-20.932 18.17-61.389 25.25-95.266 2.596l-92.877-62.182c5.897-6.102 10.991-12.979 15.070-20.48l91.947 61.541zM423.334 702.959c-3.237 9.49-5.023 19.654-5.023 30.223 0 11.866 2.242 23.21 6.287 33.661h-85.948c-30.037 0-57.934 17.564-71.098 44.736-6.237 12.861-0.32 21.845 5.748 27.104 7.518 6.54 19.064 10.586 31.639 10.586 10.804 0 22.351-2.983 32.751-9.945l91.93-61.541c4.079 7.518 9.19 14.395 15.070 20.48l-92.875 62.182c-33.88 22.654-74.335 15.575-95.219-2.596-6.692-5.815-11.445-12.541-14.243-19.789l-23.716-53.113c-12.035-26.953-11.057-56.366 2.444-81.987h202.254zM450.756 702.959h122.462c4.514 9.119 7.078 19.384 7.078 30.223 0 37.639-30.677 68.317-68.318 68.317s-68.318-30.678-68.318-68.317c0.017-10.855 2.581-21.103 7.095-30.223zM107.792 624.108v-83.521c0-25.097 17.395-46.204 40.741-51.917h316.368v188.905h-303.659c-29.464 0-53.45-23.986-53.45-53.467zM148.549 92.279c0-39.121 31.824-70.946 70.947-70.946h245.422v441.971h-316.368v-371.025zM862.75 677.574h-303.625v-188.887h316.318c23.36 5.713 40.738 26.82 40.738 51.917v83.521c0.017 29.464-23.966 53.45-53.431 53.45zM559.125 21.333h245.372c39.121 0 70.946 31.825 70.946 70.946v371.025h-316.318v-441.971z" />
<glyph unicode="&#xe944;" glyph-name="promotion" d="M905.323 805.957l26.027 26.036c9.758 9.765 9.758 25.593-0.009 35.357-9.766 9.759-25.591 9.757-35.358-0.008l-26.014-26.027c6.272-5.433 12.382-11.112 18.308-17.039 5.931-5.93 11.61-12.043 17.045-18.319zM509.269 556.32c11.136 11.133 11.136 29.251 0 40.385-11.132 11.133-29.248 11.133-40.384 0-11.132-11.133-11.132-29.25 0-40.384 11.136-11.135 29.248-11.135 40.384-0.002zM468.885 293.747c-11.132-11.136-11.132-29.252 0-40.384 11.136-11.136 29.252-11.136 40.384 0 11.136 11.132 11.136 29.248 0 40.384-11.136 11.132-29.248 11.132-40.384 0zM791.983 692.574c14.601-29.392 9.681-66.017-14.81-90.506-30.682-30.684-80.431-30.684-111.117 0-30.682 30.684-30.682 80.434 0 111.118 24.516 24.514 61.188 29.42 90.594 14.769l77.85 77.882c-115.021 97.093-287.215 91.469-395.593-16.907l-346.252-346.242c-9.763-9.766-9.763-25.591 0-35.358l378.67-378.671c9.762-9.762 25.583-9.771 35.345-0.009l346.253 346.261c108.365 108.369 113.997 280.544 16.93 395.567l-77.871-77.904zM433.532 632.067c30.626 30.629 80.465 30.63 111.091 0 30.63-30.63 30.63-80.467 0-111.094-30.63-30.63-80.465-30.63-111.095 0-30.627 30.627-30.627 80.466 0.004 111.094zM544.623 218.014c-30.626-30.626-80.465-30.626-111.095 0-30.627 30.63-30.627 80.465 0 111.095 30.63 30.63 80.465 30.63 111.095 0s30.63-80.465 0-111.095zM662.251 419.132l-340.826-37.871c-12.998-1.446-26.005 7.659-27.607 22.084-1.525 13.722 8.364 26.086 22.087 27.61l340.825 37.871c13.722 1.523 26.086-8.363 27.605-22.089 1.527-13.722-8.363-26.082-22.084-27.605z" />
<glyph unicode="&#xe945;" glyph-name="qr-code" d="M213.333 789.333c-23.564 0-42.667-19.103-42.667-42.667v-85.333c0-23.564-19.103-42.667-42.667-42.667s-42.667 19.103-42.667 42.667v85.333c0 70.692 57.308 128 128 128h85.333c23.564 0 42.667-19.103 42.667-42.667s-19.103-42.667-42.667-42.667h-85.333zM682.667 832c0 23.564 19.102 42.667 42.667 42.667h85.333c70.694 0 128-57.308 128-128v-85.333c0-23.564-19.102-42.667-42.667-42.667s-42.667 19.103-42.667 42.667v85.333c0 23.564-19.102 42.667-42.667 42.667h-85.333c-23.565 0-42.667 19.103-42.667 42.667zM128 277.333c23.564 0 42.667-19.102 42.667-42.667v-85.333c0-23.565 19.103-42.667 42.667-42.667h85.333c23.564 0 42.667-19.102 42.667-42.667s-19.103-42.667-42.667-42.667h-85.333c-70.692 0-128 57.306-128 128v85.333c0 23.565 19.103 42.667 42.667 42.667zM896 277.333c23.565 0 42.667-19.102 42.667-42.667v-85.333c0-70.694-57.306-128-128-128h-85.333c-23.565 0-42.667 19.102-42.667 42.667s19.102 42.667 42.667 42.667h85.333c23.565 0 42.667 19.102 42.667 42.667v85.333c0 23.565 19.102 42.667 42.667 42.667zM256 490.667c-23.564 0-42.667 19.102-42.667 42.667v170.667c0 23.564 19.103 42.667 42.667 42.667h170.667c23.565 0 42.667-19.103 42.667-42.667v-170.667c0-23.565-19.102-42.667-42.667-42.667h-170.667zM256 149.333c-23.564 0-42.667 19.102-42.667 42.667v170.667c0 23.565 19.103 42.667 42.667 42.667h170.667c23.565 0 42.667-19.102 42.667-42.667v-170.667c0-23.565-19.102-42.667-42.667-42.667h-170.667zM597.333 490.667c-23.565 0-42.667 19.102-42.667 42.667v170.667c0 23.564 19.102 42.667 42.667 42.667h170.667c23.565 0 42.667-19.103 42.667-42.667v-170.667c0-23.565-19.102-42.667-42.667-42.667h-170.667zM554.667 405.333h85.333v-85.333h-85.333v85.333zM725.333 320h-85.333v-85.333h-85.333v-85.333h85.333v85.333h85.333v85.333zM725.333 320v85.333h85.333v-85.333h-85.333z" />
<glyph unicode="&#xe946;" glyph-name="qr-code-scan" d="M903.113 590.222c-19.627 0-35.558 15.893-35.558 35.556v142.222c0 19.627-15.962 35.555-35.554 35.555h-142.221c-19.627 0-35.558 15.893-35.558 35.556s15.932 35.555 35.558 35.555h142.221c58.807 0 106.667-47.858 106.667-106.667v-142.222c0-19.663-15.927-35.556-35.554-35.556zM832 21.333h-142.221c-19.627 0-35.558 15.893-35.558 35.554 0 19.665 15.932 35.558 35.558 35.558h142.221c19.593 0 35.554 15.927 35.554 35.554v142.221c0 19.665 15.932 35.558 35.558 35.558s35.554-15.893 35.554-35.558v-142.221c0-58.807-47.859-106.667-106.667-106.667zM334.222 21.333h-142.222c-58.809 0-106.667 47.859-106.667 106.667v142.221c0 19.665 15.929 35.558 35.555 35.558s35.556-15.893 35.556-35.558v-142.221c0-19.627 15.964-35.554 35.555-35.554h142.222c19.627 0 35.556-15.893 35.556-35.558 0-19.661-15.929-35.554-35.556-35.554zM120.889 590.222c-19.627 0-35.555 15.893-35.555 35.556v142.222c0 58.809 47.858 106.667 106.667 106.667h142.222c19.627 0 35.556-15.893 35.556-35.555s-15.929-35.556-35.556-35.556h-142.222c-19.591 0-35.555-15.929-35.555-35.555v-142.222c0-19.663-15.929-35.556-35.556-35.556zM725.333 483.554c-19.627 0-35.554 15.893-35.554 35.558v106.665h-355.557v-106.665c0-19.665-15.929-35.558-35.555-35.558s-35.555 15.893-35.555 35.558v106.665c0 39.217 31.893 71.111 71.111 71.111h355.557c39.215 0 71.108-31.893 71.108-71.111v-106.665c0-19.665-15.927-35.558-35.554-35.558zM832 376.887c0-19.661-15.927-35.554-35.554-35.554h-35.558v-71.113c0-39.215-31.893-71.108-71.108-71.108h-355.557c-39.217 0-71.111 31.893-71.111 71.108v71.113h-35.556c-19.627 0-35.555 15.893-35.555 35.554 0 19.665 15.929 35.558 35.555 35.558h568.89c19.627 0 35.554-15.893 35.554-35.558z" />
<glyph unicode="&#xe947;" glyph-name="register" d="M747.511 544.595c-92.322 0-167.458-75.454-167.458-168.169 0-92.71 75.136-168.166 167.458-168.166 92.318 0 167.458 75.456 167.458 168.166 0 92.715-75.14 168.169-167.458 168.169zM809.694 335.893h-21.82v-21.909c0-22.323-18.001-40.538-40.363-40.538-22.366 0-40.367 18.078-40.367 40.538v21.909h-21.815c-22.229 0-40.367 18.078-40.367 40.533 0 22.46 18.001 40.538 40.367 40.538h21.815v21.909c0 22.323 18.001 40.538 40.367 40.538 22.362 0 40.363-18.078 40.363-40.538v-21.909h21.82c22.225 0 40.363-18.078 40.363-40.538 0-22.455-18.001-40.533-40.363-40.533zM412.734 426.509c-36.774 0-73.547 14.127-102.849 42.227-54.502 52.378-105.047 145.511-94.938 235.407 2.637 23.541 8.644 54.585 32.085 86.071 39.704 53.408 99.773 84.305 164.676 84.452 66.222 0 126.143-30.456 166.728-84.305 23.586-31.78 29.594-62.825 32.23-86.218v-0.736c8.644-91.073-41.459-183.617-94.938-234.817-29.299-28.105-66.074-42.082-102.848-42.082h-0.147zM532.322 376.427v0.171c0.013 9.463-6.874 17.587-16.277 18.227-4.83 0.329-9.685 0.503-14.541 0.503h-177.686c-42.955 0-84.547-12.463-120.275-36.019-59.183-39.027-94.502-108.049-94.502-184.597v-26.705c0-69.841 56.592-126.673 126.275-126.673h354.96c69.453 0 126.276 57.062 126.276 126.81 0 8.299-5.717 15.543-13.798 17.271-97.126 20.796-170.295 107.413-170.295 211.149l-0.137-0.137z" />
<glyph unicode="&#xe948;" glyph-name="responsibility" d="M423.956 598.616l-13.396-7.531c-2.312-1.3-4.338-3.032-5.964-5.096s-2.819-4.42-3.51-6.934c-0.692-2.514-0.869-5.136-0.522-7.717s1.212-5.070 2.546-7.324l47.407-80.105c2.697-4.548 7.134-7.872 12.339-9.233 5.201-1.357 10.748-0.649 15.415 1.98l13.41 7.561c6.178 3.477 13.188 5.308 20.322 5.308 7.138 0 14.144-1.835 20.322-5.316s11.307-8.486 14.874-14.515c3.563-6.033 5.44-12.868 5.436-19.827v-15.078c0-5.252 2.138-10.295 5.948-14.012s8.977-5.803 14.366-5.803h94.818c5.389 0 10.556 2.086 14.366 5.803s5.952 8.759 5.952 14.012v15.117c-0.009 6.959 1.869 13.798 5.431 19.827 3.567 6.029 8.695 11.034 14.874 14.515s13.188 5.316 20.322 5.316c7.134 0.004 14.144-1.83 20.322-5.308l13.423-7.556c4.668-2.628 10.214-3.341 15.42-1.98 5.205 1.357 9.643 4.681 12.335 9.233l47.407 80.102c1.335 2.255 2.197 4.743 2.547 7.324 0.346 2.58 0.171 5.203-0.521 7.717-0.695 2.514-1.886 4.87-3.511 6.934s-3.652 3.796-5.965 5.096l-13.41 7.491c-6.187 3.475-11.328 8.48-14.903 14.511s-5.457 12.874-5.457 19.84c0 6.966 1.882 13.809 5.457 19.84s8.717 11.036 14.903 14.511l13.397 7.531c2.313 1.3 4.343 3.032 5.969 5.097s2.82 4.423 3.511 6.938c0.691 2.516 0.866 5.139 0.521 7.721-0.35 2.582-1.216 5.072-2.551 7.327l-47.407 80.090c-2.697 4.55-7.134 7.868-12.339 9.225s-10.752 0.644-15.415-1.985l-13.41-7.557c-6.178-3.48-13.188-5.311-20.322-5.31s-14.144 1.835-20.322 5.317c-6.178 3.482-11.307 8.489-14.874 14.518-3.563 6.029-5.44 12.867-5.431 19.827v15.088c0 5.256-2.142 10.297-5.952 14.013s-8.977 5.804-14.366 5.804h-94.818c-5.389 0-10.556-2.088-14.366-5.804s-5.948-8.757-5.948-14.013v-15.114c0.004-6.96-1.873-13.798-5.436-19.827-3.567-6.029-8.695-11.036-14.874-14.518s-13.184-5.315-20.322-5.317c-7.134-0.001-14.144 1.83-20.322 5.31l-13.41 7.584c-4.668 2.628-10.214 3.34-15.415 1.98-5.205-1.36-9.643-4.681-12.339-9.233l-47.407-80.090c-1.336-2.255-2.202-4.745-2.551-7.327s-0.172-5.206 0.521-7.721c0.692-2.515 1.885-4.873 3.512-6.938s3.655-3.798 5.968-5.098l13.396-7.531c6.188-3.476 11.329-8.48 14.904-14.511s5.457-12.874 5.457-19.84c0-6.966-1.882-13.809-5.457-19.84s-8.717-11.023-14.904-14.498zM620.361 692.42c12.053 0 23.838-3.487 33.86-10.020 10.027-6.533 17.839-15.818 22.451-26.682s5.82-22.818 3.469-34.351c-2.351-11.533-8.158-22.127-16.683-30.441s-19.383-13.977-31.206-16.271c-11.827-2.294-24.081-1.117-35.217 3.383-11.14 4.5-20.659 12.12-27.358 21.897-6.694 9.777-10.27 21.272-10.27 33.031 0 15.768 6.421 30.89 17.852 42.040s26.935 17.414 43.102 17.414zM855.458 318.379l-149.764-75.482c-7.714-15.701-19.81-28.962-34.91-38.255-15.095-9.293-32.572-14.242-50.423-14.272h-154.278c-5.389 0-10.556 2.086-14.366 5.803s-5.952 8.755-5.952 14.012c0 5.257 2.142 10.3 5.952 14.016s8.977 5.803 14.366 5.803h154.278c14.37 0 28.151 5.568 38.31 15.479s15.868 23.351 15.868 37.367c0 14.016-5.709 27.46-15.868 37.372-10.159 9.907-23.94 15.475-38.31 15.475h-85.333c-23.275-0.021-46.029 6.694-65.382 19.302-28.774 18.594-62.969 27.554-97.422 25.523s-67.293-14.942-93.562-36.779l-9.644-8.047h-34.689v-251.025h59.354l231.865-35.669c67.076-11.699 136.175 3.029 192.132 40.956l196.527 133.346c7.548 5.124 13.717 11.951 17.98 19.9 4.258 7.953 6.481 16.789 6.481 25.762 0 9.545-2.517 18.927-7.313 27.247-4.791 8.32-11.699 15.3-20.058 20.262s-17.882 7.744-27.661 8.077c-9.779 0.333-19.482-1.792-28.177-6.174zM173.376 375.334h-67.725c-11.221 0-20.317-8.875-20.317-19.819v-290.662c0-10.944 9.097-19.814 20.317-19.814h67.725c11.221 0 20.317 8.87 20.317 19.814v290.662c0 10.944-9.097 19.819-20.317 19.819z" />
<glyph unicode="&#xe949;" glyph-name="scratch-card" d="M706.197 146.825l36.203 35.494v79.599l-36.203 35.494h-388.394l-36.204-35.494v-79.599l36.204-35.494h388.394zM896 789.333c0 47.128-38.204 85.333-85.333 85.333h-597.333c-47.128 0-85.333-38.205-85.333-85.333v-230.902c0-47.127 38.205-85.335 85.333-85.335h597.333c47.13 0 85.333 38.208 85.333 85.335v230.902zM358.4 548.392h-51.2v164.063c-15.070-8.565-32.563-13.475-51.2-13.475v50.196c28.232 0 51.2 22.518 51.2 50.196h51.2v-250.98zM563.2 548.392h-153.6v250.98h153.6v-250.98zM730.509 602.895l-36.203 35.494-36.207-35.494-36.203 35.494 36.203 35.494-36.203 35.495 36.203 35.494 36.207-35.495 36.203 35.495 36.203-35.494-36.203-35.495 36.203-35.494-36.203-35.494zM460.8 749.176h51.2v-150.588h-51.2v150.588zM128 106.667c0-47.13 38.205-85.333 85.333-85.333h597.333c47.13 0 85.333 38.204 85.333 85.333v230.903c0 47.125-38.204 85.333-85.333 85.333h-597.333c-47.128 0-85.333-38.208-85.333-85.333v-230.903zM296.596 347.61h430.806l66.197-64.9v-121.182l-66.197-64.9h-430.806l-66.196 64.9v121.182l66.196 64.9z" />
<glyph unicode="&#xe94a;" glyph-name="seal-percent" d="M918.805 491.648c22.989 39.573 26.189 86.134 8.73 128.327s-52.962 73.039-97.19 84.678c-29.973 7.857-53.833 31.718-61.692 61.69-11.639 44.23-42.483 79.732-84.676 97.191s-88.755 14.258-128.329-8.73c-26.769-16.005-60.527-16.005-87.296 0-39.573 22.988-86.134 26.189-128.327 8.73s-73.039-52.96-84.678-97.191c-7.857-29.972-31.718-53.833-61.69-61.69-44.231-11.639-79.732-42.484-97.191-84.678s-14.258-88.754 8.73-128.327c16.005-26.769 16.005-60.527 0-87.296-22.988-39.573-26.189-86.135-8.73-128.329s52.96-73.037 97.191-84.676c29.972-7.859 53.833-31.718 61.69-61.692 11.64-44.228 42.485-79.731 84.678-97.19 17.751-7.275 36.665-11.055 55.288-11.055 25.316 0 50.34 6.69 73.039 19.785 27.063 16.004 60.527 15.714 87.296 0 39.573-22.989 86.135-26.189 128.329-8.73s73.037 52.962 84.676 97.19c7.859 29.973 31.718 53.833 61.692 61.692 44.228 11.639 79.731 42.483 97.19 84.676s14.259 88.755-8.73 128.329c-16.004 26.769-16.004 60.527 0 87.296zM410.153 622.594c40.155 0 72.748-32.591 72.748-72.748 0-40.155-32.593-72.748-72.748-72.748-40.157 0-72.748 32.593-72.748 72.748 0 40.157 32.591 72.748 72.748 72.748zM613.845 273.408c-40.154 0-72.747 32.589-72.747 72.747 0 40.154 32.593 72.747 72.747 72.747 40.158 0 72.747-32.593 72.747-72.747 0-40.158-32.589-72.747-72.747-72.747zM678.157 572.835l-290.992-290.992c-5.82-5.525-13.094-8.435-20.66-8.435s-14.841 2.91-20.66 8.435c-11.348 11.349-11.348 29.973 0 41.323l290.99 290.99c11.349 11.348 29.973 11.348 41.323 0 11.345-11.349 11.345-29.972 0-41.321zM424.703 549.847c0-8.148-6.402-14.55-14.55-14.55s-14.549 6.402-14.549 14.55c0 8.148 6.402 14.549 14.549 14.549s14.55-6.402 14.55-14.549zM628.395 346.155c0-8.149-6.4-14.549-14.549-14.549-8.145 0-14.549 6.4-14.549 14.549 0 8.145 6.404 14.549 14.549 14.549 8.149 0 14.549-6.404 14.549-14.549z" />
<glyph unicode="&#xe94b;" glyph-name="search" d="M837.414 283.738c135.006 135.002 135.002 354.672 0 489.676s-354.671 135.004-489.674 0c-114.534-114.533-131.88-284.872-52.085-417.889 0 0 5.732-9.617-2.010-17.353-44.162-44.156-176.657-176.653-176.657-176.653-35.162-35.162-43.533-84.326-12.351-115.511l5.369-5.363c31.182-31.189 80.35-22.822 115.509 12.343 0 0 132.215 132.215 176.286 176.282 8.112 8.115 17.725 2.381 17.725 2.381 133.015-79.791 303.357-62.447 417.887 52.087zM411.665 347.665c-99.755 99.75-99.752 262.062 0.003 361.816 99.756 99.752 262.064 99.754 361.819 0 99.755-99.751 99.755-262.065 0-361.816s-262.063-99.75-361.822 0zM433.766 549.124c-4.642 0-9.363 0.913-13.913 2.834-18.173 7.692-26.676 28.66-18.985 46.836 48.343 114.244 180.618 167.857 294.858 119.514 18.172-7.692 26.675-28.661 18.987-46.837-7.697-18.176-28.659-26.673-46.844-18.984-77.943 32.982-168.196-3.599-201.178-81.542-5.769-13.632-19.004-21.821-32.926-21.821z" />
<glyph unicode="&#xe94c;" glyph-name="secure" d="M511.996 874.667c-53.884 0-105.563-21.406-143.666-59.508s-59.508-89.781-59.508-143.666v-117.029c-22.752-8.6-43.599-21.578-61.359-38.197-56.076-55.671-60.546-175.138-60.546-210.487 0-35.354 4.47-154.82 60.546-210.492 49.574-49.165 156.851-73.954 264.533-73.954s214.959 24.38 264.533 73.549c56.077 56.077 60.548 175.543 60.548 210.897 0 35.349-4.471 154.816-60.548 210.487-17.758 16.619-38.605 29.597-61.359 38.197v117.029c0 53.885-21.406 105.563-59.507 143.666s-89.783 59.508-143.667 59.508zM390.091 671.492c0 32.331 12.844 63.338 35.705 86.199s53.867 35.705 86.199 35.705c32.333 0 63.339-12.844 86.199-35.705s35.703-53.868 35.703-86.199v-92.648c-80.61 14.63-163.196 14.63-243.808 0v92.648zM552.631 305.779v-40.636c0-10.778-4.284-21.111-11.904-28.736-7.62-7.62-17.954-11.9-28.732-11.9s-21.111 4.279-28.732 11.9c-7.62 7.625-11.904 17.958-11.904 28.736v40.636c-10.778 0-21.111 4.279-28.732 11.9s-11.904 17.958-11.904 28.732c0 10.778 4.284 21.116 11.904 28.736s17.954 11.9 28.732 11.9h81.271c10.778 0 21.111-4.279 28.732-11.9s11.904-17.958 11.904-28.736c0-10.773-4.284-21.111-11.904-28.732s-17.954-11.9-28.732-11.9z" />
<glyph unicode="&#xe94d;" glyph-name="setting" d="M887.753 566.924c-16.597 2.419-32.435 8.564-46.34 17.976-13.901 9.413-25.51 21.851-33.958 36.388-8.444 14.537-13.517 30.799-14.831 47.575s1.161 33.633 7.236 49.317c3.866 10.253 4.433 21.463 1.63 32.057-2.807 10.594-8.845 20.042-17.271 27.018-37.205 31.345-79.552 55.969-125.158 72.774-10.385 3.87-21.722 4.354-32.397 1.382-10.671-2.972-20.139-9.248-27.051-17.935-10.402-13.346-23.697-24.14-38.878-31.564s-31.846-11.282-48.734-11.282c-16.883 0-33.549 3.858-48.73 11.282s-28.476 18.218-38.878 31.564c-6.911 8.686-16.378 14.962-27.053 17.935s-22.012 2.488-32.396-1.382c-42.108-15.515-81.477-37.673-116.623-65.639-8.859-7.037-15.24-16.734-18.209-27.673s-2.369-22.543 1.711-33.115c6.563-16.098 9.275-33.516 7.918-50.856s-6.746-34.119-15.735-48.992c-8.989-14.873-21.326-27.425-36.023-36.65s-31.344-14.865-48.606-16.469c-11.207-1.202-21.733-5.983-30.028-13.638s-13.922-17.78-16.052-28.885c-5.296-26.304-7.965-53.073-7.965-79.906-0.039-22.468 1.769-44.898 5.405-67.068 1.809-11.46 7.331-22.003 15.712-29.999s19.153-13.001 30.653-14.238c17.641-1.66 34.629-7.535 49.542-17.135s27.317-22.647 36.174-38.042c8.857-15.398 13.909-32.7 14.733-50.458s-2.603-35.456-9.995-51.614c-4.838-10.509-6.038-22.336-3.409-33.609s8.934-21.342 17.916-28.604c36.981-30.775 78.921-55.002 124.018-71.633 5.767-2.005 11.818-3.063 17.92-3.14 8.367 0.017 16.608 2.048 24.032 5.922s13.814 9.476 18.633 16.337c10.138 14.822 23.731 26.935 39.59 35.29 15.863 8.354 33.519 12.698 51.435 12.655 17.357-0.021 34.47-4.109 49.975-11.938 15.509-7.825 28.979-19.179 39.339-33.152 6.895-9.297 16.657-16.043 27.767-19.191 11.115-3.149 22.955-2.522 33.673 1.783 41.237 16.649 79.625 39.663 113.779 68.207 8.58 7.117 14.69 16.781 17.446 27.601 2.761 10.82 2.031 22.238-2.086 32.614-6.69 15.893-9.609 33.126-8.521 50.342 1.084 17.216 6.144 33.941 14.78 48.862 8.636 14.916 20.608 27.618 34.97 37.094 14.366 9.481 30.729 15.479 47.804 17.527 11.068 1.536 21.363 6.566 29.393 14.366s13.376 17.963 15.262 29.013c4.57 23.804 7.044 47.966 7.398 72.205 0.004 25.566-2.377 51.076-7.113 76.198-1.92 10.806-7.185 20.731-15.049 28.365s-17.924 12.587-28.757 14.156zM654.225 448.205c0-28.224-8.341-55.812-23.97-79.279s-37.841-41.754-63.825-52.557c-25.988-10.799-54.588-13.623-82.176-8.119-27.588 5.508-52.928 19.098-72.819 39.053s-33.435 45.38-38.923 73.062c-5.488 27.678-2.671 56.371 8.093 82.445s28.993 48.359 52.38 64.039c23.39 15.68 50.889 24.048 79.014 24.048 37.722 0 73.894-15.034 100.57-41.794 26.671-26.76 41.655-63.057 41.655-100.898z" />
<glyph unicode="&#xe94e;" glyph-name="shield-check" d="M873.758 655.020c-1.033 22.449-1.033 43.878-1.033 65.307 0 17.347-13.397 30.613-30.916 30.613-128.823 0-226.731 36.736-308.151 115.308-12.365 11.225-30.916 11.225-43.285 0-81.416-78.573-179.322-115.308-308.147-115.308-17.52 0-30.918-13.265-30.918-30.613 0-21.429 0-42.858-1.031-65.307-4.122-214.29-10.306-508.174 351.433-631.647l10.308-2.039 10.304 2.039c360.713 123.473 355.558 416.337 351.437 631.647zM487.283 358.076c-6.182-5.103-13.397-8.166-21.645-8.166h-1.028c-8.247 0-16.491 4.083-21.645 10.206l-95.845 105.105 46.377 40.815 75.234-82.654 166.959 157.147 42.253-44.899-190.66-177.553z" />
<glyph unicode="&#xe94f;" glyph-name="spinner-gap" d="M512 874.667c-29.466 0-53.333-23.866-53.333-53.333v-106.667c0-29.466 23.868-53.333 53.333-53.333s53.333 23.867 53.333 53.333v106.667c0 29.467-23.868 53.333-53.333 53.333zM512 234.667c-29.466 0-53.333-23.868-53.333-53.333v-106.667c0-29.466 23.868-53.333 53.333-53.333s53.333 23.868 53.333 53.333v106.667c0 29.466-23.868 53.333-53.333 53.333zM738.266 598.853l75.413 75.414c20.826 20.826 20.826 54.586 0 75.413s-54.583 20.826-75.413 0l-75.413-75.413c-20.826-20.827-20.826-54.587 0-75.414 20.83-20.826 54.588-20.826 75.413 0zM285.734 297.148l-75.413-75.413c-20.827-20.83-20.827-54.588 0-75.413s54.586-20.826 75.413 0l75.413 75.413c20.827 20.826 20.827 54.583 0 75.413-20.826 20.826-54.586 20.826-75.413 0zM285.734 749.707c-20.827 20.827-54.587 20.827-75.413 0s-20.827-54.586 0-75.413l75.413-75.413c20.826-20.827 54.586-20.827 75.413 0s20.827 54.587 0 75.413l-75.413 75.413zM738.266 297.148c-20.826 20.826-54.583 20.826-75.413 0-20.826-20.83-20.826-54.588 0-75.413l75.413-75.413c20.83-20.826 54.588-20.826 75.413 0s20.826 54.583 0 75.413l-75.413 75.413zM885.333 501.333h-106.667c-29.466 0-53.333-23.868-53.333-53.333s23.868-53.333 53.333-53.333h106.667c29.466 0 53.333 23.868 53.333 53.333s-23.868 53.333-53.333 53.333zM298.667 448c0 29.466-23.867 53.333-53.333 53.333h-106.667c-29.467 0-53.333-23.868-53.333-53.333s23.866-53.333 53.333-53.333h106.667c29.466 0 53.333 23.868 53.333 53.333z" />
<glyph unicode="&#xe950;" glyph-name="support" d="M836.557 177.011c-19.093 56.832-95.202 92.403-149.466 116.25-21.257 9.314-80.107 25.109-87.181 51.874-2.53 9.643-2.189 18.735-0.115 27.447-3.268-0.623-6.588-0.994-10.022-0.994h-35.354c-28.228 0-51.162 22.963-51.162 51.17 0 28.19 22.942 51.106 51.162 51.106h35.354c11.682 0 22.758-3.951 31.689-11.008 13.094 1.745 25.724 4.544 37.5 8.213 15.462 32.397 27.524 71.138 30.225 104.484 11.541 142.677-75.925 226.153-201.335 211.722-91.185-10.496-145.656-78.488-151.544-166.021-5.954-89.219 27.127-155.118 62.265-203.455 15.388-21.133 31.555-34.722 29.068-60.186-2.88-30.114-35.079-38.507-58.11-47.761-27.288-10.961-56.681-27.588-70.561-35.281-47.815-26.406-100.295-58.206-112.090-101.705-26.121-96.41 62.094-125.611 134.921-139.093 62.502-11.533 132.976-12.442 190.947-12.442 104.858 0 293.406 4.198 323.81 83.021 8.649 22.366 4.941 58.005 0 72.657zM612.151 437.163c-4.8 7.309-13.001 12.164-22.357 12.164h-35.358c-14.754 0-26.65-11.917-26.65-26.594 0-14.737 11.895-26.671 26.65-26.671h35.358c10.325 0 19.085 5.888 23.505 14.4 49.293 3.878 92.169 18.935 122.261 41.169 6.912-4.454 15.087-7.061 23.906-7.061h2.219c24.576 0 44.446 19.891 44.446 44.493v88.824c0 17.693-10.372 32.958-25.331 40.050-6.524 142.63-124.599 256.73-268.83 256.73-144.233 0-262.324-114.1-268.819-256.73-14.99-7.102-25.353-22.357-25.353-40.050v-88.824c0-24.602 19.892-44.493 44.411-44.493h2.247c24.538 0 44.44 19.891 44.44 44.493v88.824c0 17.437-10.079 32.474-24.728 39.747 6.343 120.177 106.069 215.969 227.802 215.969 121.685 0 221.457-95.792 227.772-215.969-14.63-7.282-24.7-22.31-24.7-39.747v-88.824c0-5.897 1.148-11.383 3.17-16.516-25.903-18.534-63.612-31.744-106.061-35.383z" />
<glyph unicode="&#xe951;" glyph-name="telegram" d="M104.15 453.124l196.28-66.662 465.992 284.886c6.754 4.131 13.675-5.043 7.851-10.406l-352.791-324.724-13.12-181.798c-0.999-13.828 15.66-21.53 25.546-11.806l108.625 106.812 198.571-150.323c21.406-16.205 52.399-4.783 58.172 21.436l138.27 627.808c7.885 35.814-27.209 66.036-61.457 52.92l-772.936-295.977c-24.247-9.289-23.587-43.814 0.998-52.164z" />
</font>
</defs>
</svg>
